Ссылка на приватное зеркало нашего сайта всего за 1$. Внимание количество ограничено!!!

2 сезон

iTunes

1 сезон

1

iTunes

iTunes

iTunes

1 сезон

RePack

30

ИГРА 18+

pack

ВАЖНО

!!Акция!!

Alien_RageХит недели

RePack

MK11
pack

Забери бонус

RePack

jed

!!Акция!!

Alien_Rage

RePack

fifa19

RePack

Assassins Creed: Odyssey

RePack

NEED FOR SPEED™ PAYBACK

4 сезон

9 сезон

Бесстыжие 9 сезон

Все сериалы

все сериалы на PB.wtf

RePack

FAR CRY 5
  

Мое сердце с тобой /серии 1-2 из 2/ (Сергей Лялин) [2018 г., Мелодрама, WEB-DL 1080p] pb.wtf

Мое сердце с тобой через торрент pb.wtf

Размер: 3.23 GB | Добавлен: 2 года назад | Торрент скачан:40 раз
Скачать  

22-09-2018 22:16 Мое сердце с тобой Скачать торрент  

Мое сердце с тобой /серии 1-2 из 2/
Год выпуска: 2018
Страна: Россия
Жанр: Мелодрама
Продолжительность: 2х ~01:30:00
Субтитры: Отсутствуют

Режиссер: Сергей Лялин

В ролях: Ольга Павловец, Алексей Фатеев, Илья Оболонков, Аделина Коблова, Елена Вербицкая, Ева Авеева, Даниил Вершинин, Анастасия Дубровина

Описание: Скромная учительница математики Ольга всю себя посвящает семье — мужу Вадиму и дочке Лене. Вадим же за ее спиной живет в свое удовольствие, крутит романы и в один момент совсем уходит из семьи к любовнице. Ольга остается одна с маленькой дочкой без средств к существованию. Она вынуждена подать на алименты, но муж обнаруживает поразительное обстоятельство — оказывается Леночка — не его дочь! Ольга раздавлена такой незаслуженной клеветой, ведь она знает, что была верна мужу. Но самое страшное испытание ждет ее впереди, когда Лена тяжело заболевает. Ольга готова стать донором, но в больнице ей сообщают, что все эти годы она воспитывала чужого ребенка…

Качество: WEB-DL 1080p
Формат: MKV
Видео кодек: H.264
Аудио кодек: AC3
Видео: AVC/H.264, 1920x1080 (16:9), ~2340 Kbps
Аудио#1: AC3, 2 ch, 192 Kbps
скриншот   скриншот   скриншот   скриншот  

Общее
Уникальный идентификатор : 219589164298960345216156105065627881103 (0xA53355AECF45744B9E3DA4BDFA638E8F)
Полное имя : D:\1\Серия 1.by.Алехаndr.mkv
Формат : Matroska
Версия формата : Version 4
Размер файла : 1,60 Гбайт
Продолжительность : 1 ч. 30 м.
Общий поток : 2536 Кбит/сек
Дата кодирования : UTC 2018-09-22 19:34:51
Программа кодирования : mkvmerge v26.0.0 ('In The Game') 64-bit
Библиотека кодирования : libebml v1.3.6 + libmatroska v1.4.9 / Lavf57.71.100

Видео
Идентификатор : 1
Формат : AVC
Формат/Информация : Advanced Video Codec
Профиль формата : High@L4
Настройки формата : CABAC / 2 Ref Frames
Параметр CABAC формата : Да
Параметр RefFrames формата : 2 кадра
Идентификатор кодека : V_MPEG4/ISO/AVC
Продолжительность : 1 ч. 30 м.
Битрейт : 2342 Кбит/сек
Ширина : 1920 пикселей
Высота : 1080 пикселей
Соотношение сторон : 16:9
Режим частоты кадров : Постоянный
Частота кадров : 25,000 кадров/сек
Цветовое пространство : YUV
Субдискретизация насыщенности : 4:2:0
Битовая глубина : 8 бит
Тип развёртки : Прогрессивная
Бит/(Пиксели*Кадры) : 0.045
Размер потока : 1,48 Гбайт (92%)
Default : Да
Forced : Нет
Цветовой диапазон : Limited
Основные цвета : BT.709
Характеристики трансфера : BT.709
Коэффициенты матрицы : BT.709

Аудио
Идентификатор : 2
Формат : AC-3
Формат/Информация : Audio Coding 3
Коммерческое название : Dolby Digital
Идентификатор кодека : A_AC3
Продолжительность : 1 ч. 30 м.
Вид битрейта : Постоянный
Битрейт : 192 Кбит/сек
Каналы : 2 канала
Channel layout : L R
Частота : 48,0 КГц
Частота кадров : 31,250 кадров/сек (1536 SPF)
Битовая глубина : 16 бит
Метод сжатия : С потерями
Размер потока : 124 Мбайт (8%)
ServiceKind/String : Complete Main
Default : Да
Forced : Нет

pb.wtf



Скачать Мое сердце с тобой через торрент http://pic1.kartinco.top/images/11/1g6cl.jpg Скачать фильм Мое сердце с тобой через торрент бесплантно в хорошем качестве Описание: Скромная учительница математики Ольга всю себя посвящает семье — мужу Вадиму и дочке Лене. Вадим же за ее спиной живет в свое ... 10 10 1
Торрент: Зарегистрирован [2018-09-22 22:16] · скачан: 40 раз
Статус: √ проверено
Размер: 3.23 GB
Как cкачать? Как скачать Мое сердце с тобой через торрент | qTorrent

28-11-2019 20:33  

Отключить всю рекламу на сайте

    Дорогой пользователь! Огромная просьба, поблагодарите релизера, оцените раздачу и оставьте свои комментарий, если Вы скачали Мое сердце с тобой через торрент бесплатно! Внесите свою лепту в развитие PiratBit!
    Комментировать посты могут только пользователи прошедшие не сложную регистрацию
    Показать сообщения:    

    Мое сердце с тобой через торрент
    Скачать бесплатно Мое сердце с тобой
    Мое сердце с тобой скачать торрент
    Мое сердце с тобой смотреть онлайн
    Cкачать фильм Мое сердце с тобой бесплатно
    Мое сердце с тобой скачать торрент в хорошем качестве
    Мое сердце с тобой смотреть онлайн бесплатно в хорошем качестве


    Вы не можете начинать темы
    Вы не можете отвечать на сообщения
    Вы не можете редактировать свои сообщения
    Вы не можете удалять свои сообщения
    Вы не можете голосовать в опросах
    Вы не можете прикреплять файлы к сообщениям
    Вы можете скачивать файлы