Ссылка на приватное зеркало нашего сайта всего за 1$. Внимание количество ограничено!!!

2 сезон

iTunes

1 сезон

1

2 сезон

2 сезон

iTunes

1 сезон

RePack

30

Новинка

ВАЖНО

ИГРА 18+

pack

RePack

MK11
pack

Забери бонус

RePack

jed

!!Акция!!

Alien_Rage

RePack

fifa19

RePack

Assassins Creed: Odyssey

RePack

NEED FOR SPEED™ PAYBACK

4 сезон

9 сезон

Бесстыжие 9 сезон

Все сериалы

все сериалы на PB.wtf

RePack

FAR CRY 5
  

Открытие ведьм / A Discovery of Witches / Сезон: 1 / Серии: 1-8 из 8 (Сара Уокер, Элис Тротон, Сара Уолкер) [2018, Фэнтези, драма, мелодрама, HDTV 1080p] MVO [NewStudio] pb.wtf

Открытие ведьм через торрент pb.wtf

Раздают: 1 [ 0 KB/s ]
Размер: 12.79 GB | Добавлен: 2 года назад | Торрент скачан:88 раз
Скачать  

22-09-2018 23:42 Открытие ведьм Скачать торрент  

Открытие ведьм / A Discovery of Witches

Год выпуска: 2018
Страна: США
Жанр: Фэнтези, драма, мелодрама
Продолжительность: ~ 00:45:00
Перевод: Профессиональный (многоголосый закадровый) | NewStudio
Субтитры: отсутствуют

Режиссёр: Сара Уокер, Элис Тротон, Сара Уолкер

В ролях:

Мэттью Гуд, Тереза Палмер, Оуэн Тил, Малин Буска, Тревор Ив, Аийша Харт, Джулиан Костов, Нила Аалия, Пино Майелло, Алекс Кингстон

Описание:

История любви на фоне оксфордской академической жизни. Историк Диана Бишоп специализируется на старинных рукописях и однажды обнаруживает в архивах некий манускрипт, связанный с магией. С этих пор жизнь Дианы превращается в кошмар, зато судьба сводит её с обаятельным генетиком Мэттью Клермонтом. Пикантность ситуации заключается в том, что Диана — потомственная ведьма, а Мэттью — вампир.

rating

Качество: HDTV 1080p
Формат: MKV

Видео: 1916x960 at 25.000 fps, MPEG-4 AVC, ~4800 kbps avg
Аудио#1: Russian: 48 kHz, AC3, 3/2 (L,C,R,l,r) + LFE ch, ~384 kbps avg |Многоголосый закадровый, NewStudio|
Аудио#2: English: 48 kHz, AC3, 3/2 (L,C,R,l,r) + LFE ch, ~384 kbps avg
скриншот  скриншот  скриншот  скриншот  

Общее
Уникальный идентификатор : 188148980419111816909377266257498484631 (0x8D8C2CF0284485BA92DBE94613042F97)
Полное имя : D:\A.Discovery.Of.Witches.S01.HDTV.1080p.NewStudio\A.Discovery.Of.Witches.S01E01.HDTV.1080p.NewStudio.mkv
Формат : Matroska
Версия формата : Version 4 / Version 2
Размер файла : 1,75 Гбайт
Продолжительность : 44 м. 51 с.
Общий поток : 5576 Кбит/сек
Дата кодирования : UTC 2018-09-22 18:04:04
Программа кодирования : mkvmerge v8.3.0 ('Over the Horizon') 32bit
Библиотека кодирования : libebml v1.3.1 + libmatroska v1.4.2
Attachments : poster.png

Видео
Идентификатор : 1
Формат : AVC
Формат/Информация : Advanced Video Codec
Профиль формата : High@L4.1
Параметр CABAC формата : Да
Параметр RefFrames формата : 4 кадра
Идентификатор кодека : V_MPEG4/ISO/AVC
Продолжительность : 44 м. 51 с.
Битрейт : 4804 Кбит/сек
Ширина : 1916 пикселей
Высота : 960 пикселей
Соотношение сторон : 1,996
Режим частоты кадров : Постоянный
Частота кадров : 25,000 кадров/сек
Цветовое пространство : YUV
Субдискретизация насыщенности : 4:2:0
Битовая глубина : 8 бит
Тип развёртки : Прогрессивная
Бит/(Пиксели*Кадры) : 0.104
Размер потока : 1,51 Гбайт (86%)
Библиотека кодирования : x264 core 155 r2901 7d0ff22
Настройки программы : cabac=1 / ref=4 / deblock=1:-2:-2 / analyse=0x3:0x113 / me=hex / subme=8 / psy=1 / psy_rd=1.00:0.00 / mixed_ref=1 / me_range=16 / chroma_me=1 / trellis=2 / 8x8dct=1 / cqm=0 / deadzone=21,11 / fast_pskip=1 / chroma_qp_offset=-2 / threads=12 / lookahead_threads=2 / sliced_threads=0 / nr=0 / decimate=1 / interlaced=0 / bluray_compat=0 / constrained_intra=0 / bframes=3 / b_pyramid=2 / b_adapt=1 / b_bias=0 / direct=3 / weightb=1 / open_gop=0 / weightp=2 / keyint=250 / keyint_min=25 / scenecut=40 / intra_refresh=0 / rc_lookahead=50 / rc=crf / mbtree=1 / crf=17.0 / qcomp=0.60 / qpmin=0 / qpmax=69 / qpstep=4 / ip_ratio=1.40 / aq=1:1.00
Язык : English
Default : Да
Forced : Нет
Цветовой диапазон : Limited
Коэффициенты матрицы : BT.709

Аудио #1
Идентификатор : 2
Формат : AC-3
Формат/Информация : Audio Coding 3
Расширение режима : CM (complete main)
Параметр Endianness формата : Big
Идентификатор кодека : A_AC3
Продолжительность : 44 м. 51 с.
Вид битрейта : Постоянный
Битрейт : 384 Кбит/сек
Каналы : 6 каналов
Расположение каналов : Front: L C R, Side: L R, LFE
Частота : 48,0 КГц
Частота кадров : 31,250 кадров/сек (1536 spf)
Метод сжатия : С потерями
Размер потока : 123 Мбайт (7%)
Заголовок : NewStudio
Язык : Russian
Default : Да
Forced : Нет

Аудио #2
Идентификатор : 3
Формат : AC-3
Формат/Информация : Audio Coding 3
Расширение режима : CM (complete main)
Параметр Endianness формата : Big
Идентификатор кодека : A_AC3
Продолжительность : 44 м. 51 с.
Вид битрейта : Постоянный
Битрейт : 384 Кбит/сек
Каналы : 6 каналов
Расположение каналов : Front: L C R, Side: L R, LFE
Частота : 48,0 КГц
Частота кадров : 31,250 кадров/сек (1536 spf)
Метод сжатия : С потерями
Размер потока : 123 Мбайт (7%)
Язык : English
Default : Нет
Forced : Нет

Когда раздача ведётся путём добавления новых серий, при каждом добавлении создётся новый торрент. Чтобы начать докачку новой серии, пользователям необходимо сделать следующее:
(1) остановить скачивание,
(2) удалить старый торрент у себя из клиента (старые серии удалять не надо),
(3) скачать новый торрент и запустить его у себя в клиенте вместо старого, при этом указать клиенту путь в старую папку, куда и должно происходить скачивание новых серий.
Ваш клиент при этом должен произвести хеширование (проверку) старой папки (если не производит сам - помогите ему сделать это), и будет докачивать только те серии, которых у вас ещё нет. Старые серии при этом не удаляются, а продолжают раздаваться!
Eсли вы уже удалили старые серии, то предотвратить повторную закачку старых серий можно, отжав галочку в соответсвующих местах при запуске нового торрента. По возможности, желательно не удалять старые серии как можно дольше, чтобы релизёр не столько продолжал раздавать старые серии, а смог сконцентрироваться на новых.
pb.wtf



Скачать Открытие ведьм через торрент http://pic1.kartinco.top/images/11/9k6bq.jpg Скачать фильм Открытие ведьм через торрент бесплантно в хорошем качестве Описание:История любви на фоне оксфордской академической жизни. Историк Диана Бишоп специализируется на старинных рукописях и однажды ... 9.8 10 6
Торрент: Зарегистрирован [2018-11-20 07:01] · скачан: 88 раз
Статус: √ проверено
Размер: 12.79 GB
Как cкачать? Как скачать Открытие ведьм через торрент | qTorrent

% Раздел Тема Автор DL S | L
Зарубежные сериалы [ 23.35 GB ] Открытие ведьм / A Discovery of Witches / Сезон: 1 / Серии: 1-8 из 8 [2018 BDRip 1080p] MVO [Lostfilm] bober100 Скачать
1 | 0
Зарубежные сериалы [ 11.71 GB ] Открытие ведьм / A Discovery of Witches / Сезон: 1 / Серии: 1-8 из 8 [2018 WEBRip 1080p] [MVO] killermax2013 Скачать
1 | 0
Зарубежные сериалы [ 12.65 GB ] Открытие ведьм / A Discovery of Witches / Сезон: 1 / Серии: 1-8 из 8 [2018 HDTVRip 1080p] MVO [Good People] bober100 Скачать
1 | 0
Зарубежные сериалы [ 4.37 GB ] Открытие ведьм / A Discovery of Witches / Сезон: 1 / Серии: 1-8 из 8 [2018 WEB-DLRip] [DVO] + [MVO] killermax2013 Скачать
1 | 0
Зарубежные сериалы [ 12.67 GB ] Открытие ведьм / A Discovery of Witches / Сезон: 1 / Серии: 1-8 из 8 [2018 WEB-DL 1080p] [DVO] + [MVO] killermax2013 Скачать
2 | 0
Зарубежные сериалы [ 6.34 GB ] Открытие ведьм / A Discovery of Witches / Сезон: 1 / Серии: 1-8 из 8 [2018 HDTV 720p] MVO [Jaskier] bober100 Скачать
1 | 0


Последний раз редактировалось: bober100 (2018-11-20 07:01), всего редактировалось 6 раз(а)

28-11-2019 20:33  

Отключить всю рекламу на сайте

23-09-2018 06:37 Открытие ведьм Скачать торрент  

Режиссёр: Сара Уокер, Элис Тротон, Сара Уолкерpb.wtf



23-09-2018 23:21 Открытие ведьм Скачать торрент  

вампир и ведьма- герои нашего времени pb.wtf



24-09-2018 16:07 Открытие ведьм Скачать торрент  

Прочёл описание и фейспалм опознал ).pb.wtf



    Дорогой пользователь! Огромная просьба, поблагодарите релизера, оцените раздачу и оставьте свои комментарий, если Вы скачали Открытие ведьм через торрент бесплатно! Внесите свою лепту в развитие PiratBit!
    Комментировать посты могут только пользователи прошедшие не сложную регистрацию
    Показать сообщения:    

    Открытие ведьм через торрент
    Скачать бесплатно Открытие ведьм
    Открытие ведьм скачать торрент
    Открытие ведьм смотреть онлайн
    Cкачать фильм Открытие ведьм бесплатно
    Открытие ведьм скачать торрент в хорошем качестве
    Открытие ведьм смотреть онлайн бесплатно в хорошем качестве


    Вы не можете начинать темы
    Вы не можете отвечать на сообщения
    Вы не можете редактировать свои сообщения
    Вы не можете удалять свои сообщения
    Вы не можете голосовать в опросах
    Вы не можете прикреплять файлы к сообщениям
    Вы можете скачивать файлы