Ссылка на приватное зеркало нашего сайта всего за 1$. Внимание количество ограничено!!!

2 сезон

iTunes

1 сезон

1

iTunes

iTunes

iTunes

1 сезон

RePack

30

ИГРА 18+

pack

ВАЖНО

!!Акция!!

Alien_RageХит недели

RePack

MK11
pack

Забери бонус

RePack

jed

!!Акция!!

Alien_Rage

RePack

fifa19

RePack

Assassins Creed: Odyssey

RePack

NEED FOR SPEED™ PAYBACK

4 сезон

9 сезон

Бесстыжие 9 сезон

Все сериалы

все сериалы на PB.wtf

RePack

FAR CRY 5
  

Товарищи полицейские / Сезон: 1 / Серии: 1-32 из 32 (Сергей Терещук, Игорь Кечаев и др.) [2011-2012, Детектив, криминал, драма, WEB-DLRip-AVC] pb.wtf

Товарищи полицейские через торрент pb.wtf

Размер: 23.49 GB | Добавлен: 2 года назад | Торрент скачан:10 раз
Скачать  

23-09-2018 00:10 Товарищи полицейские Скачать торрент  

Товарищи полицейскиеГод выпуска: 2011-2012
Страна: Россия
Жанр: Детектив, криминал, драма
Продолжительность: ~ 00:55:00
Субтитры: отсутствуют

Режиссер: Сергей Терещук, Игорь Кечаев и др.



В ролях:

Владислав Дёмин, Анжелина Карелина, Алексей Осипов (II), Егор Баринов, Татьяна Орлова, Владислав Резник, Алексей Демидов, Сергей Сосновский и др.

Описание:

Главные герои сериала - современные сотрудники МУРа. Они мало чем отличаются от всех нас. У них тоже есть семьи, прошлое, планы на будущее, свои слабости, привычки, достоинства и недостатки. Но эти люди каждый день выходят на борьбу с преступностью. Их мир перевернут. В нем приключения – рутина, а обыденность – долгожданная передышка. Они так же страдают, теряют друзей, льют слезы из-за несчастной любви. Но работа никогда не отпускает их до конца, заставляя постоянно решать не только юридические, но и этические задачи... В центре повествования - четыре отдела МУРа: Отдел по раскрытию убийств - "Убойный". Отдел по борьбе с мошенничеством - "Мошенники". Отдел по раскрытию краж - "13 отдел". Отдел собственной безопасности ГУВД Москвы - "Инквизиторы".

Качество: WEB-DLRip-AVC
Формат: MKV

Видео: MPEG-4 (AVC), 1024x576, 25 fps, ~1800 kbps, 0.12 bit/pixel
Аудио: AC3, 2 ch, 192 Кбит/с
скриншот  скриншот  скриншот  

Общее
Уникальный идентификатор : 253427953364670247489773634505184324528 (0xBEA872CB316810F89BCB8D9BD3E32BB0)
Полное имя : D:\Товарищи полицейские\Товарищи полицейские (01 сер.).mkv
Формат : Matroska
Версия формата : Version 4 / Version 2
Размер файла : 759 Мбайт
Продолжительность : 53 м. 14 с.
Общий поток : 1993 Кбит/сек
Дата кодирования : UTC 2017-05-04 04:25:49
Программа кодирования : mkvmerge v8.3.0 ('Over the Horizon') 32bit
Библиотека кодирования : libebml v1.3.1 + libmatroska v1.4.2

Видео
Идентификатор : 1
Формат : AVC
Формат/Информация : Advanced Video Codec
Профиль формата : High@L3.1
Параметр CABAC формата : Да
Параметр RefFrames формата : 4 кадра
Идентификатор кодека : V_MPEG4/ISO/AVC
Продолжительность : 53 м. 14 с.
Битрейт : 1800 Кбит/сек
Ширина : 1024 пикселя
Высота : 576 пикселей
Соотношение сторон : 16:9
Режим частоты кадров : Постоянный
Частота кадров : 25,000 кадров/сек
Цветовое пространство : YUV
Субдискретизация насыщенности : 4:2:0
Битовая глубина : 8 бит
Тип развёртки : Прогрессивная
Бит/(Пиксели*Кадры) : 0.122
Размер потока : 685 Мбайт (90%)
Библиотека кодирования : x264 core 146 r2538 121396c
Настройки программы : cabac=1 / ref=3 / deblock=1:0:0 / analyse=0x3:0x113 / me=umh / subme=7 / psy=1 / psy_rd=1.00:0.00 / mixed_ref=1 / me_range=16 / chroma_me=1 / trellis=1 / 8x8dct=1 / cqm=0 / deadzone=21,11 / fast_pskip=1 / chroma_qp_offset=-2 / threads=4 / lookahead_threads=1 / sliced_threads=0 / nr=0 / decimate=1 / interlaced=0 / bluray_compat=0 / stitchable=1 / constrained_intra=0 / bframes=3 / b_pyramid=2 / b_adapt=1 / b_bias=0 / direct=1 / weightb=1 / open_gop=0 / weightp=2 / keyint=250 / keyint_min=25 / scenecut=40 / intra_refresh=0 / rc_lookahead=40 / rc=2pass / mbtree=1 / bitrate=1800 / ratetol=1.0 / qcomp=0.60 / qpmin=0 / qpmax=69 / qpstep=4 / cplxblur=20.0 / qblur=0.5 / ip_ratio=1.40 / aq=1:1.00
Default : Да
Forced : Нет

Аудио
Идентификатор : 2
Формат : AC-3
Формат/Информация : Audio Coding 3
Расширение режима : CM (complete main)
Параметр Endianness формата : Big
Идентификатор кодека : A_AC3
Продолжительность : 53 м. 14 с.
Вид битрейта : Постоянный
Битрейт : 192 Кбит/сек
Каналы : 2 канала
Расположение каналов : Front: L R
Частота : 48,0 КГц
Частота кадров : 31,250 кадров/сек (1536 spf)
Метод сжатия : С потерями
Размер потока : 73,1 Мбайт (10%)
Default : Да
Forced : Нет
pb.wtf



Скачать Товарищи полицейские через торрент http://i32.fastpic.ru/big/2011/0831/49/3950548790e4ffaad4a3d3a01a613049.png Скачать фильм Товарищи полицейские через торрент бесплантно в хорошем качестве Описание: Главные герои сериала - современные сотрудники МУРа. Они мало чем отличаются от всех нас. У них тоже есть семьи, прошлое, планы ... 10 10 2
Торрент: Зарегистрирован [2018-09-23 00:10] · скачан: 10 раз
Статус: √ проверено
Размер: 23.49 GB
Как cкачать? Как скачать Товарищи полицейские через торрент | qTorrent

% Раздел Тема Автор DL S | L
Наши сериалы [ 23.22 GB ] Товарищи полицейские / Сезон: 1 / Серии: 1-32 из 32 [2011-2012 HDTVRip] bober100 Скачать
1 | 0

28-11-2019 20:33  

Отключить всю рекламу на сайте

    Дорогой пользователь! Огромная просьба, поблагодарите релизера, оцените раздачу и оставьте свои комментарий, если Вы скачали Товарищи полицейские через торрент бесплатно! Внесите свою лепту в развитие PiratBit!
    Комментировать посты могут только пользователи прошедшие не сложную регистрацию
    Показать сообщения:    

    Товарищи полицейские через торрент
    Скачать бесплатно Товарищи полицейские
    Товарищи полицейские скачать торрент
    Товарищи полицейские смотреть онлайн
    Cкачать фильм Товарищи полицейские бесплатно
    Товарищи полицейские скачать торрент в хорошем качестве
    Товарищи полицейские смотреть онлайн бесплатно в хорошем качестве


    Вы не можете начинать темы
    Вы не можете отвечать на сообщения
    Вы не можете редактировать свои сообщения
    Вы не можете удалять свои сообщения
    Вы не можете голосовать в опросах
    Вы не можете прикреплять файлы к сообщениям
    Вы можете скачивать файлы