новый адрес
Ссылка на приватное зеркало всего за 1$. Внимание количество ограничено!!!

iTunes

1+1

iTunes

мы

WEB-DL

1

iTunes

Чернобыль

iTunes

Ральф против интернета

Лицензия

ПШазам

Лицензия

Оно 2

Лицензия

30
pack

Вам бонус

ВАЖНО

!!Акция!!

Alien_RageХит недели

RePack

Resident Evil 21

ИГРА 18+

pack

RePack

jed

!!Акция!!

Alien_Rage

RePack

fifa19

RePack

Assassins Creed: Odyssey

RePack

NEED FOR SPEED™ PAYBACK

3 сезон

9 сезон

Бесстыжие 9 сезон

Все сериалы

все сериалы на PB.wtf

RePack

FAR CRY 5
Ребята, катастрофически не хватает 1900р. для оплаты серверов за Октябрь (всвязи с блокировками трафик упал в 3 раза), 1-2р., выручайте.
  

Длинный день (Рафаил Гольдин) [1961, СССР, драма, DVDRip от AVP Studio] pb.wtf

Длинный день через торрент pb.wtf

Размер: 1.09 GB | Добавлен: 1 год 2 мес. назад | Торрент скачан:9 раз
Скачать  

23-09-2018 09:01 Длинный день Скачать торрент  

Длинный день
Страна: СССР
Производство: Свердловская киностудия

Жанр: драма
Год выпуска: 1961
Продолжительность: 01:22:58

Перевод: Не требуется
Cубтитры: нет
Оригинальная аудиодорожка: русский

Режиссер: Рафаил Гольдин

В ролях:
Афанасий Кочетков, Евгений Лазарев, Валентина Пугачёва, Анна Обручева, Леонид Харитонов, Виктор Уральский, Людмила Маркелия, Юрий Медведев, Адольф Ильин, Анатолий Ромашин...
Об актёрах подробней

Описание:
Новый заводской поселок на Урале. Машиностроительный завод получает рекламацию от строителей ГЭС по поломке одного из экскаваторов. Строители считают, что поломка произошла из-за заводского брака. Чтобы установить истинную причину, от завода на ГЭС направляют комиссию во главе с Романом (Афанасий Кочетков), в которую входит и его друг, первоклассный слесарь Петр (Евгений Лазарев). Роман узнает, что жена полюбила его напарника по работе Петра.

Источник: DVD5 R5
Качество видео: DVDRip
Формат видео: AVI

Видео: 688х512 (4:3), 25,000 кадров/сек, XviD ~ 1484 kbps avg, 0.169 bit/pixel
Аудио: 48 kHz, Dolby Digital AC3 5.1, 384 kbps

Раздача от:
Общее
Полное имя : Dlinnyy.den.1961.DVDRip_[New-team]_by_AVP_Studio.avi
Формат : AVI
Формат/Информация : Audio Video Interleave
Размер файла : 1,09 Гбайт
Продолжительность : 1 ч. 22 м.
Общий поток : 1878 Кбит/сек
Программа кодирования : VirtualDubMod 1.5.10.3 | www.virtualdub-fr.org || (build 2550/release)
Библиотека кодирования : VirtualDubMod build 2550/release

Видео
Идентификатор : 0
Формат : MPEG-4 Visual
Профиль формата : Advanced Simple@L5
Настройки формата : BVOP1 / Custom Matrix
Параметр BVOP формата : 1
Параметр QPel формата : Нет
Параметр GMC формата : Без точки перехода
Параметр матрицы формата : Выборочная
Идентификатор кодека : XVID
Идентификатор кодека/Подсказка : XviD
Продолжительность : 1 ч. 22 м.
Битрейт : 1484 Кбит/сек
Ширина : 688 пикселей
Высота : 512 пикселей
Соотношение сторон : 4:3
Частота кадров : 25,000 кадров/сек
Цветовое пространство : YUV
Субдискретизация насыщенности : 4:2:0
Битовая глубина : 8 бит
Тип развёртки : Прогрессивная
Метод сжатия : С потерями
Бит/(Пиксели*Кадры) : 0.169
Размер потока : 881 Мбайт (79%)
Библиотека кодирования : XviD 73

Аудио
Идентификатор : 1
Формат : AC-3
Формат/Информация : Audio Coding 3
Коммерческое название : Dolby Digital
Идентификатор кодека : 2000
Продолжительность : 1 ч. 22 м.
Вид битрейта : Постоянный
Битрейт : 384 Кбит/сек
Каналы : 6 каналов
Channel layout : L R C LFE Ls Rs
Частота : 48,0 КГц
Частота кадров : 31,250 кадров/сек (1536 SPF)
Битовая глубина : 16 бит
Метод сжатия : С потерями
Размер потока : 228 Мбайт (20%)
Выравнивание : Разделение по промежуткам
Продолжительность промежутка : 40 мс. (1,00 видеокадр)
Время предзагрузки промежутка : 500 мс
pb.wtf



Скачать Длинный день через торрент http://picplus.ru/img/1809/23/50167e21.png Скачать фильм Длинный день через торрент бесплантно в хорошем качестве Описание:Новый заводской поселок на Урале. Машиностроительный завод получает рекламацию от строителей ГЭС по поломке одного из ... 10 10 1
Info! Золотая раздача, скачанное не засчитывается.
Торрент: Зарегистрирован [2018-09-23 09:01] · скачан: 9 раз
Статус: √ проверено
Размер: 1.09 GB
Как cкачать? Как скачать Длинный день через торрент | qTorrent

% Раздел Тема Автор DL S | L
Фильмы 2016 [DVDrip, WEB-DLRip, HDrip] (DUB, MVO) [ 1.46 GB ] Подлинный Вермеер / Een echte Vermeer / A real Vermeer [2016 WEB-DLRip] [MVO] killermax2013 Скачать
1 | 0
Фильмы (WEB-DL 720p, 1080p) [ 4.62 GB ] Подлинный Вермеер / Een echte Vermeer / A real Vermeer [2016 WEB-DL 1080p] [MVO] killermax2013 Скачать
1 | 0
Кино СССР [ 1.09 GB ] Длинный день [1961 СССР DVDRip-AVC от AVP Studio] AVP Studio Скачать
1 | 0
Фильмы [HD 720p, 1080p] (Хороший звук DUB, MVO) [ 6.73 GB ] Самый длинный день / The Longest Day [1962 военный история BDRip 720p by msltel] MVO VO msltel Скачать
1 | 0
Фильмы [HD 720p, 1080p] (Хороший звук DUB, MVO) [ 18.65 GB ] Самый длинный день / The Longest Day [1962 военный история BDRip 1080p by msltel] MVO VO msltel Скачать
1 | 0
Разное [ 340 MB ] Длинные стройные ноги помогли при оплате квартиры / Tiffany [2011 Молоденькие Жесткий секс Фетиш Большие сиськи Брюнетки Студентки SiteRip] orton Скачать
1 | 0

28-11-2019 20:33  

Отключить всю рекламу на сайте

    Дорогой пользователь! Огромная просьба, поблагодарите релизера, оцените раздачу и оставьте свои комментарий, если Вы скачали Длинный день через торрент бесплатно! Внесите свою лепту в развитие PiratBit!
    Комментировать посты могут только пользователи прошедшие не сложную регистрацию
    Показать сообщения:    

    Длинный день через торрент
    Скачать бесплатно Длинный день
    Длинный день скачать торрент
    Длинный день смотреть онлайн
    Cкачать фильм Длинный день бесплатно
    Длинный день скачать торрент в хорошем качестве
    Длинный день смотреть онлайн бесплатно в хорошем качестве


    Вы не можете начинать темы
    Вы не можете отвечать на сообщения
    Вы не можете редактировать свои сообщения
    Вы не можете удалять свои сообщения
    Вы не можете голосовать в опросах
    Вы не можете прикреплять файлы к сообщениям
    Вы можете скачивать файлы