Ссылка на приватное зеркало нашего сайта всего за 1$. Внимание количество ограничено!!!

2 сезон

iTunes

1 сезон

1

2 сезон

2 сезон

iTunes

1 сезон

RePack

30

Ultimate

ВАЖНО

ИГРА 18+

pack

RePack

MK11
pack

Забери бонус

RePack

jed

!!Акция!!

Alien_Rage

RePack

fifa19

RePack

Assassins Creed: Odyssey

RePack

NEED FOR SPEED™ PAYBACK

4 сезон

9 сезон

Бесстыжие 9 сезон

Все сериалы

все сериалы на PB.wtf

RePack

FAR CRY 5
  

Счастье в волосах / Nappily Ever After (Хайфа Аль-Мансур) [2018, Драма, мелодрама, комедия, WEB-DL 1080p] DUB [АРК-ТВ] pb.wtf

Счастье в волосах через торрент pb.wtf

Размер: 4.06 GB | Добавлен: 2 года 2 мес. назад | Торрент скачан:104 раза
Скачать  

23-09-2018 09:08 Счастье в волосах Скачать торрент  

Счастье в волосах / Nappily Ever AfterГод выпуска: 2018
Страна: США
Жанр: Драма, мелодрама, комедия
Продолжительность: 01:38:30
Перевод: Профессиональный (дублированный) | АРК-ТВ
Субтитры: Русские (Forced; Full), английские (Full)

Режиссер: Хайфа Аль-Мансур

rating

В ролях:

Рики Уиттл, Санаа Лэтэн, Кили Кашиано, Бриттани С. Холл, Эрни Хадсон, Линн Уитфилд, Камилла Гуати, Джен Харпер, Катрин Дайер, Лайрик Бент

Описание:

История женщины, которая придавала слишком большое значение внешнему виду, и в особенности — волосам. Когда она принимает решение побриться наголо, у неё начинается новая жизнь.

Качество: WEB-DL 1080p
Формат: MKV

Видео: AVC, 1920x1080 (16:9), 23.976 fps, ~ 4640 Kbps
Аудио#1: E-AC3, 48 KHz, 6 ch, 640 kbps (Дубляж)
Аудио#2: E-AC3, 48 KHz, 6 ch, 640 kbps (Original)
скриншот  скриншот  скриншот  скриншот  

Complete name : D:Nappily.Ever.After.2018.1080p.NF.mkv
Format : Matroska
Format version : Version 4 / Version 2
File size : 4.06 GiB
Duration : 1 h 38 min
Overall bit rate mode : Variable
Overall bit rate : 5 895 kb/s
Encoded date : UTC 2018-09-22 17:43:50
Writing application : mkvmerge v9.9.0 ('Pick Up') 32bit
Writing library : libebml v1.3.4 + libmatroska v1.4.5

Video
ID : 1
Format : AVC
Format/Info : Advanced Video Codec
Format profile : Main@L4
Format settings : CABAC / 3 Ref Frames
Format settings, CABAC : Yes
Format settings, RefFrames : 3 frames
Codec ID : V_MPEG4/ISO/AVC
Duration : 1 h 38 min
Bit rate mode : Variable
Bit rate : 4 640 kb/s
Maximum bit rate : 6 960 kb/s
Width : 1 920 pixels
Height : 1 080 pixels
Display aspect ratio : 16:9
Frame rate mode : Constant
Frame rate : 23.976 (24000/1001) FPS
Color space : YUV
Chroma subsampling : 4:2:0
Bit depth : 8 bits
Scan type : Progressive
Bits/(Pixel*Frame) : 0.093
Stream size : 3.17 GiB (78%)
Writing library : x264 core 148 r2715 7e75228
Encoding settings : cabac=1 / ref=3 / deblock=1:0:0 / analyse=0x1:0x111 / me=umh / subme=10 / psy=1 / psy_rd=1.00:0.00 / mixed_ref=1 / me_range=24 / chroma_me=1 / trellis=2 / 8x8dct=0 / cqm=0 / deadzone=21,11 / fast_pskip=1 / chroma_qp_offset=-2 / threads=8 / lookahead_threads=1 / sliced_threads=0 / nr=0 / decimate=1 / interlaced=0 / bluray_compat=0 / stitchable=1 / constrained_intra=0 / bframes=2 / b_pyramid=0 / b_adapt=2 / b_bias=0 / direct=3 / weightb=1 / open_gop=0 / weightp=2 / keyint=48 / keyint_min=25 / scenecut=0 / intra_refresh=0 / rc_lookahead=48 / rc=2pass / mbtree=1 / bitrate=4640 / ratetol=1.0 / qcomp=0.50 / qpmin=6 / qpmax=51 / qpstep=4 / cplxblur=20.0 / qblur=0.5 / vbv_maxrate=6960 / vbv_bufsize=9280 / nal_hrd=vbr / filler=0 / ip_ratio=1.40 / aq=1:1.00
Language : English
Default : Yes
Forced : No

Audio #1
ID : 2
Format : E-AC-3
Format/Info : Enhanced Audio Coding 3
Format settings, Endianness : Big
Codec ID : A_EAC3
Duration : 1 h 38 min
Bit rate mode : Constant
Bit rate : 640 kb/s
Channel(s) : 6 channels
Channel positions : Front: L C R, Side: L R, LFE
Sampling rate : 48.0 kHz
Frame rate : 187.500 FPS (256 SPF)
Compression mode : Lossy
Stream size : 451 MiB (11%)
Title : Dub
Language : Russian
Service kind : Complete Main
Default : Yes
Forced : No

Audio #2
ID : 3
Format : E-AC-3
Format/Info : Enhanced Audio Coding 3
Format settings, Endianness : Big
Codec ID : A_EAC3
Duration : 1 h 38 min
Bit rate mode : Constant
Bit rate : 640 kb/s
Channel(s) : 6 channels
Channel positions : Front: L C R, Side: L R, LFE
Sampling rate : 48.0 kHz
Frame rate : 187.500 FPS (256 SPF)
Compression mode : Lossy
Stream size : 451 MiB (11%)
Title : Original
Language : English
Service kind : Complete Main
Default : No
Forced : No

Text #1
ID : 4
Format : UTF-8
Codec ID : S_TEXT/UTF8
Codec ID/Info : UTF-8 Plain Text
Duration : 1 h 28 min
Bit rate : 2 b/s
Count of elements : 22
Stream size : 1.77 KiB (0%)
Title : Forced
Language : Russian
Default : Yes
Forced : No

Text #2
ID : 5
Format : UTF-8
Codec ID : S_TEXT/UTF8
Codec ID/Info : UTF-8 Plain Text
Duration : 1 h 37 min
Bit rate : 82 b/s
Count of elements : 1260
Stream size : 59.2 KiB (0%)
Language : Russian
Default : No
Forced : No

Text #3
ID : 6
Format : UTF-8
Codec ID : S_TEXT/UTF8
Codec ID/Info : UTF-8 Plain Text
Duration : 1 h 34 min
Bit rate : 76 b/s
Count of elements : 1621
Stream size : 52.7 KiB (0%)
Language : English
Default : No
Forced : No

pb.wtf



Скачать Счастье в волосах через торрент http://a.radikal.ru/a40/1809/5c/28baeac6b6ce.png Скачать фильм Счастье в волосах через торрент бесплантно в хорошем качестве Описание: История женщины, которая придавала слишком большое значение внешнему виду, и в особенности — волосам. Когда она принимает решение ... 10 10 7
Торрент: Зарегистрирован [2018-09-23 09:08] · скачан: 104 раз
Статус: √ проверено
Размер: 4.06 GB
Как cкачать? Как скачать Счастье в волосах через торрент | qTorrent

% Раздел Тема Автор DL S | L
Фильмы 2018 [DVDrip, WEB-DLRip, HDrip] (DUB, MVO) [ 1.46 GB ] Счастье в волосах / Nappily Ever After [2018 WEB-DLRip] DUB [АРК-ТВ] bober100 Скачать
1 | 0

28-11-2019 20:33  

Отключить всю рекламу на сайте

    Дорогой пользователь! Огромная просьба, поблагодарите релизера, оцените раздачу и оставьте свои комментарий, если Вы скачали Счастье в волосах через торрент бесплатно! Внесите свою лепту в развитие PiratBit!
    Комментировать посты могут только пользователи прошедшие не сложную регистрацию
    Показать сообщения:    

    Счастье в волосах через торрент
    Скачать бесплатно Счастье в волосах
    Счастье в волосах скачать торрент
    Счастье в волосах смотреть онлайн
    Cкачать фильм Счастье в волосах бесплатно
    Счастье в волосах скачать торрент в хорошем качестве
    Счастье в волосах смотреть онлайн бесплатно в хорошем качестве


    Вы не можете начинать темы
    Вы не можете отвечать на сообщения
    Вы не можете редактировать свои сообщения
    Вы не можете удалять свои сообщения
    Вы не можете голосовать в опросах
    Вы не можете прикреплять файлы к сообщениям
    Вы можете скачивать файлы