Ссылка на приватное зеркало нашего сайта всего за 1$. Внимание количество ограничено!!!

2 сезон

iTunes

1 сезон

1

2 сезон

2 сезон

iTunes

1 сезон

RePack

30

Ultimate

ВАЖНО

ИГРА 18+

pack

RePack

MK11
pack

Забери бонус

RePack

jed

!!Акция!!

Alien_Rage

RePack

fifa19

RePack

Assassins Creed: Odyssey

RePack

NEED FOR SPEED™ PAYBACK

4 сезон

9 сезон

Бесстыжие 9 сезон

Все сериалы

все сериалы на PB.wtf

RePack

FAR CRY 5
  

Мрачные небеса / Dark Skies (Скотт Чарльз Стюарт) [2013, ужасы, фантастика, триллер, BD Remux 1080p] DUB [Лицензия BD RUS] pb.wtf

Мрачные небеса через торрент pb.wtf

Размер: 20.37 GB | Добавлен: 2 года 2 мес. назад | Торрент скачан:26 раз
Скачать  

23-09-2018 09:34 Мрачные небеса Скачать торрент  

Мрачные небеса / Dark Skies
Год выпуска: 2013
Страна: США
Жанр: ужасы, фантастика, триллер
Продолжительность: 01:37:08
Перевод: Дублированный | Лицензия BD RUS
Субтитры: Русские, английские

Режиссер: Скотт Чарльз Стюарт

rating

В ролях:

Кери Расселл, Джош Хэмилтон, Дакота Гойо, Дж.К. Симмонс, Энни Турман, Майкл Патрик МакГилл, Тревор Ст. Джон, Аливия Элин Линд, Л. Бенет, Джейк Уошберн

Описание:

Странные вещи начинают происходить в обычной семье жителей пригорода. Электронные приборы без причины отключаются. Дети повсюду находят мертвых птиц.
В их дом проникают инопланетные существа, которые по какой-то причине следят за семьей. Чем больше странных, мистических вещей начинает происходить в доме, тем быстрее становится ясно: загадочные существа, прилетевшие с другой планеты в поисках новой жизни, охотятся на детей, живущих там.

Качество: BD Remux 1080p
Формат: MKV

Видео: AVC/H.264, 1920x1080, ~22,4 Мbps, 23.976 fps
Аудио#1: DTS-HD MA, 6 ch, 3457 Kbps - Русский
Аудио#2: AC3, 6 ch, 640 Kbps - Русский
Аудио#3: AC3, 6 ch, 640 Kbps - Русский
скриншот  скриншот  скриншот  скриншот  

Общее
Уникальный идентификатор : 339629032802133900018113333530695431510 (0xFF822C24170D72DAE0DEADD0CAC5F556)
Полное имя : Dark Skies.2013.Remux.mkv
Формат : Matroska
Версия формата : Version 4
Размер файла : 20,4 Гбайт
Продолжительность : 1 ч. 37 м.
Режим общего битрейта : Переменный
Общий поток : 30,0 Мбит/сек
Название фильма : Dark Skies.2013.Remux.W
Дата кодирования : UTC 2018-09-23 07:31:05
Программа кодирования : mkvmerge v23.0.0 ('The Bride Said No') 64-bit
Библиотека кодирования : libebml v1.3.6 + libmatroska v1.4.9

Видео
Идентификатор : 1
Формат : AVC
Формат/Информация : Advanced Video Codec
Профиль формата : High@L4.1
Настройки формата : CABAC / 2 Ref Frames
Параметр CABAC формата : Да
Параметр RefFrames формата : 2 кадра
Параметр GOP формата : M=1, N=10
Идентификатор кодека : V_MPEG4/ISO/AVC
Продолжительность : 1 ч. 37 м.
Вид битрейта : Переменный
Битрейт : 22,4 Мбит/сек
Ширина : 1920 пикселей
Высота : 1080 пикселей
Соотношение сторон : 16:9
Режим частоты кадров : Постоянный
Частота кадров : 23,976 (24000/1001) кадра/сек
Цветовое пространство : YUV
Субдискретизация насыщенности : 4:2:0
Битовая глубина : 8 бит
Тип развёртки : Прогрессивная
Бит/(Пиксели*Кадры) : 0.450
Размер потока : 15,2 Гбайт (74%)
Язык : English
Default : Да
Forced : Нет

Аудио #1
Идентификатор : 2
Формат : DTS XLL
Формат/Информация : Digital Theater Systems
Коммерческое название : DTS-HD Master Audio
Идентификатор кодека : A_DTS
Продолжительность : 1 ч. 37 м.
Вид битрейта : Переменный
Битрейт : 3457 Кбит/сек
Каналы : 6 каналов
Channel layout : C L R Ls Rs LFE
Частота : 48,0 КГц
Частота кадров : 93,750 кадра/сек (512 SPF)
Битовая глубина : 24 бит
Метод сжатия : Без потерь
Размер потока : 2,35 Гбайт (12%)
Заголовок : DUB
Язык : Russian
Default : Да
Forced : Нет

Аудио #2
Идентификатор : 3
Формат : AC-3
Формат/Информация : Audio Coding 3
Коммерческое название : Dolby Digital
Идентификатор кодека : A_AC3
Продолжительность : 1 ч. 37 м.
Вид битрейта : Постоянный
Битрейт : 640 Кбит/сек
Каналы : 6 каналов
Channel layout : L R C LFE Ls Rs
Частота : 48,0 КГц
Частота кадров : 31,250 кадров/сек (1536 SPF)
Битовая глубина : 16 бит
Метод сжатия : С потерями
Размер потока : 445 Мбайт (2%)
Заголовок : DUB
Язык : Russian
ServiceKind : Complete Main
Default : Нет
Forced : Нет

Аудио #3
Идентификатор : 4
Формат : DTS XLL
Формат/Информация : Digital Theater Systems
Коммерческое название : DTS-HD Master Audio
Идентификатор кодека : A_DTS
Продолжительность : 1 ч. 37 м.
Вид битрейта : Переменный
Битрейт : 3564 Кбит/сек
Каналы : 6 каналов
Channel layout : C L R Ls Rs LFE
Частота : 48,0 КГц
Частота кадров : 93,750 кадра/сек (512 SPF)
Битовая глубина : 24 бит
Метод сжатия : Без потерь
Размер потока : 2,42 Гбайт (12%)
Язык : English
Default : Нет
Forced : Нет

Текст #1
Идентификатор : 5
Формат : UTF-8
Идентификатор кодека : S_TEXT/UTF8
Идентификатор кодека/Информация : UTF-8 Plain Text
Продолжительность : 1 ч. 32 м.
Битрейт : 71 бит/сек
ElementCount : 1069
Размер потока : 48,5 Кбайт (0%)
Заголовок : Full
Язык : Russian
Default : Нет
Forced : Нет

Текст #2
Идентификатор : 6
Формат : UTF-8
Идентификатор кодека : S_TEXT/UTF8
Идентификатор кодека/Информация : UTF-8 Plain Text
Продолжительность : 1 ч. 30 м.
Битрейт : 51 бит/сек
ElementCount : 1006
Размер потока : 34,4 Кбайт (0%)
Заголовок : Full
Язык : English
Default : Нет
Forced : Нет

Текст #3
Идентификатор : 7
Формат : UTF-8
Идентификатор кодека : S_TEXT/UTF8
Идентификатор кодека/Информация : UTF-8 Plain Text
Продолжительность : 1 ч. 32 м.
Битрейт : 61 бит/сек
ElementCount : 1217
Размер потока : 41,2 Кбайт (0%)
Заголовок : SDH
Язык : English
Default : Нет
Forced : Нет

Меню
00:00:00.000 : :Chapter 01
00:04:21.469 : :Chapter 02
00:08:22.210 : :Chapter 03
00:14:43.716 : :Chapter 04
00:18:52.131 : :Chapter 05
00:24:34.014 : :Chapter 06
00:29:52.916 : :Chapter 07
00:36:28.144 : :Chapter 08
00:40:32.430 : :Chapter 09
00:45:40.404 : :Chapter 10
00:52:14.548 : :Chapter 11
00:59:41.244 : :Chapter 12
01:05:08.195 : :Chapter 13
01:11:59.481 : :Chapter 14
01:17:07.247 : :Chapter 15
01:22:48.171 : :Chapter 16
01:29:07.050 : :Chapter 17
01:33:03.244 : :Chapter 18
01:37:08.572 : :Chapter 19

pb.wtf



Скачать Мрачные небеса через торрент http://d.radikal.ru/d10/1809/55/6e8cb9ce3026.jpg Скачать фильм Мрачные небеса через торрент бесплантно в хорошем качестве Описание: Странные вещи начинают происходить в обычной семье жителей пригорода. Электронные приборы без причины отключаются. Дети повсюду ... 10 10 4
Торрент: Зарегистрирован [2018-09-23 09:34] · скачан: 26 раз
Статус: √ проверено
Размер: 20.37 GB
Как cкачать? Как скачать Мрачные небеса через торрент | qTorrent

% Раздел Тема Автор DL S | L
Фильмы [HD 720p, 1080p] (Хороший звук DUB, MVO) [ 4.68 GB ] Мрачные небеса / Dark Skies [2013 BDRip 720p лицензия] Ke$h@ Скачать
1 | 0
Фильмы 2013 [DVDrip, WEB-DLRip, HDrip] [ 1.46 GB ] Мрачные небеса / Dark Skies [2013 DVDRip лицензия] _Alessandro_ Скачать
3 | 0
Фильмы 2013 [DVDrip, WEB-DLRip, HDrip] [ 1.46 GB ] Мрачные небеса / Dark Skies [2013 HDRip лицензия] Seedtank Скачать
1 | 0
Фильмы (DVD фильмы) [ 3.63 GB ] Мрачные небеса / Dark Skies [2013 DVD5] R5 voovaz Скачать
1 | 0

28-11-2019 20:33  

Отключить всю рекламу на сайте

    Дорогой пользователь! Огромная просьба, поблагодарите релизера, оцените раздачу и оставьте свои комментарий, если Вы скачали Мрачные небеса через торрент бесплатно! Внесите свою лепту в развитие PiratBit!
    Комментировать посты могут только пользователи прошедшие не сложную регистрацию
    Показать сообщения:    

    Мрачные небеса через торрент
    Скачать бесплатно Мрачные небеса
    Мрачные небеса скачать торрент
    Мрачные небеса смотреть онлайн
    Cкачать фильм Мрачные небеса бесплатно
    Мрачные небеса скачать торрент в хорошем качестве
    Мрачные небеса смотреть онлайн бесплатно в хорошем качестве


    Вы не можете начинать темы
    Вы не можете отвечать на сообщения
    Вы не можете редактировать свои сообщения
    Вы не можете удалять свои сообщения
    Вы не можете голосовать в опросах
    Вы не можете прикреплять файлы к сообщениям
    Вы можете скачивать файлы