Ссылка на приватное зеркало нашего сайта всего за 1$. Внимание количество ограничено!!!

2 сезон

iTunes

1 сезон

1

2 сезон

2 сезон

iTunes

1 сезон

RePack

30

Новинка

ВАЖНО

ИГРА 18+

pack

RePack

MK11
pack

Забери бонус

RePack

jed

!!Акция!!

Alien_Rage

RePack

fifa19

RePack

Assassins Creed: Odyssey

RePack

NEED FOR SPEED™ PAYBACK

4 сезон

9 сезон

Бесстыжие 9 сезон

Все сериалы

все сериалы на PB.wtf

RePack

FAR CRY 5
  

Любовники / Two Lovers (Джеймс Грэй) [2008, драма, мелодрама, BDRemux 1080p от NNNB] MVO + AVO + Sub (Rus,Eng) pb.wtf

Любовники через торрент pb.wtf

Размер: 20.06 GB | Добавлен: 2 года 2 мес. назад | Торрент скачан:22 раза
Скачать  

23-09-2018 09:39 Любовники Скачать торрент  


Название: Любовники
Оригинальное название: Two Lovers
Год выпуска: 2008
Жанр: Драма, мелодрама
Выпущено: США, 2929 Productions, Wild Bunch, Tempesta Films
Режиссер: Джеймс Грэй
В ролях: Хоакин Феникс, Гвинет Пэлтроу, Винесса Шоу, Мони Мошонов, Изабелла Росселлини, Джон Ортиз, Боб Эри, Джули Бадд, Элиас Котеас, Дэвид Кейл
Продолжительность: 01:50:07
Перевод: Профессиональный многоголосый, Авторский одноголосый
Субтитры: Русские, Английские

Описание:
По соседству с убежденным холостяком Леонардом поселяется очаровательная Мишель. Теперь беспечному мужчине предстоит нелегкий выбор между подругой семьи, которую хотят выдать за него замуж его родители, и красивой, но крайне переменчивой новой соседкой.

Качество: BDRemux
Контейнер (Расширение): MKV
Видео: VC-1 Video / 21128 kbps / 1080p / 23.976 fps / 16:9
Аудио №1: русский / AC3 / 5.1 / 48 kHz / 448 kbps / DN -4dB |Профессиональный многоголосый, СОЮЗ-ВИДЕО|
Аудио №2: русский / DTS-HD MA / 5.1 / 48 kHz / 2146 kbps / 16-bit (DTS Core: 5.1 / 48 kHz / 1509 kbps / 16-bit) |Авторский одноголосый, С.Визгунов|
Аудио №3: английский / DTS-HD MA / 5.1 / 48 kHz / 2125 kbps / 16-bit (DTS Core: 5.1 / 48 kHz / 1509 kbps / 16-bit)
Аудио №4: английский / AC3 / 2.0 / 48 kHz / 224 kbps |Comments|
Навигация по главам (Чаптеры): естьРелиз от: Группа:
Format : Matroska
Format version : Version 2
File size : 20.1 GiB
Duration : 1 h 50 min
Overall bit rate : 26.1 Mb/s
Movie name : Two Lovers.(2008).BDRemux.1080p.[denis100]
Encoded date : UTC 2018-09-23 07:09:52
Writing application : mkvmerge v5.8.0 ('No Sleep / Pillow') built on Sep 2 2012 15:37:04
Writing library : libebml v1.2.3 + libmatroska v1.3.0

Video
ID : 1
Format : VC-1
Format profile : Advanced@L3
Codec ID : V_MS/VFW/FOURCC / WVC1
Codec ID/Hint : Microsoft
Duration : 1 h 50 min
Width : 1 920 pixels
Height : 1 080 pixels
Display aspect ratio : 16:9
Frame rate mode : Constant
Frame rate : 23.976 (24000/1001) FPS
Color space : YUV
Chroma subsampling : 4:2:0
Bit depth : 8 bits
Scan type : Progressive
Compression mode : Lossy
Title : Two Lovers.(2008).BDRemux.1080p.[denis100]
Language : English
Default : Yes
Forced : No

Audio #1
ID : 2
Format : AC-3
Format/Info : Audio Coding 3
Codec ID : A_AC3
Duration : 1 h 50 min
Bit rate mode : Constant
Bit rate : 448 kb/s
Channel(s) : 6 channels
Channel positions : Front: L C R, Side: L R, LFE
Sampling rate : 48.0 kHz
Frame rate : 31.250 FPS (1536 SPF)
Bit depth : 16 bits
Compression mode : Lossy
Stream size : 353 MiB (2%)
Title : MVO, СОЮЗ-ВИДЕО
Language : Russian
Service kind : Complete Main
Default : Yes
Forced : No

Audio #2
ID : 3
Format : DTS
Format/Info : Digital Theater Systems
Format profile : MA / Core
Codec ID : A_DTS
Duration : 1 h 50 min
Bit rate mode : Variable / Constant
Bit rate : Unknown / 1 509 kb/s
Channel(s) : 6 channels
Channel positions : Front: L C R, Side: L R, LFE
Sampling rate : 48.0 kHz
Frame rate : 93.750 FPS (512 SPF)
Bit depth : 16 bits
Compression mode : Lossless / Lossy
Title : AVO, С.Визгунов
Language : Russian
Default : No
Forced : No

Audio #3
ID : 4
Format : DTS
Format/Info : Digital Theater Systems
Format profile : MA / Core
Codec ID : A_DTS
Duration : 1 h 50 min
Bit rate mode : Variable / Constant
Bit rate : Unknown / 1 509 kb/s
Channel(s) : 6 channels
Channel positions : Front: L C R, Side: L R, LFE
Sampling rate : 48.0 kHz
Frame rate : 93.750 FPS (512 SPF)
Bit depth : 16 bits
Compression mode : Lossless / Lossy
Language : English
Default : No
Forced : No

Audio #4
ID : 5
Format : AC-3
Format/Info : Audio Coding 3
Codec ID : A_AC3
Duration : 1 h 50 min
Bit rate mode : Constant
Bit rate : 224 kb/s
Channel(s) : 2 channels
Channel positions : Front: L R
Sampling rate : 48.0 kHz
Frame rate : 31.250 FPS (1536 SPF)
Bit depth : 16 bits
Compression mode : Lossy
Stream size : 176 MiB (1%)
Title : Comments
Language : English
Service kind : Complete Main
Default : No
Forced : No

Text #1
ID : 6
Format : UTF-8
Codec ID : S_TEXT/UTF8
Codec ID/Info : UTF-8 Plain Text
Language : Russian
Default : No
Forced : No

Text #2
ID : 7
Format : UTF-8
Codec ID : S_TEXT/UTF8
Codec ID/Info : UTF-8 Plain Text
Language : English
Default : No
Forced : No

Menu
00:00:00.000 : en:00:00:00.000
00:09:11.217 : en:00:09:11.217
00:13:02.073 : en:00:13:02.073
00:19:22.661 : en:00:19:22.661
00:25:15.639 : en:00:25:15.639
00:30:13.270 : en:00:30:13.270
00:35:45.268 : en:00:35:45.268
00:40:53.576 : en:00:40:53.576
00:48:50.302 : en:00:48:50.302
00:55:07.012 : en:00:55:07.012
00:58:31.258 : en:00:58:31.258
01:01:26.391 : en:01:01:26.391
01:10:13.709 : en:01:10:13.709
01:21:38.519 : en:01:21:38.519
01:32:14.362 : en:01:32:14.362
01:44:00.526 : en:01:44:00.526
скриншот   скриншот   скриншот   скриншот  
pb.wtf



Скачать Любовники через торрент https://i3.imageban.ru/out/2018/09/23/2a3cec2369e6c5be16d034151a7e20b5.png Скачать фильм Любовники через торрент бесплантно в хорошем качестве Описание:По соседству с убежденным холостяком Леонардом поселяется очаровательная Мишель. Теперь беспечному мужчине предстоит нелегкий ... 8.5 10 4
Info! Золотая раздача, скачанное не засчитывается.
Торрент: Зарегистрирован [2018-09-23 09:39] · скачан: 22 раз
Статус: √ проверено
Размер: 20.06 GB
Как cкачать? Как скачать Любовники через торрент | qTorrent

% Раздел Тема Автор DL S | L
Фильмы [HD 720p, 1080p] (Хороший звук DUB, MVO) [ 7.93 GB ] Любовники / Two Lovers [2008 BDRip 720p от NNNB] MVO + AVO + Sub _denis_100 Скачать
1 | 0
Фильмы [HD 720p, 1080p] (Хороший звук DUB, MVO) [ 11.47 GB ] Любовники / Two Lovers [2008 BDRip 1080p by msltel] MVO msltel Скачать
1 | 0
Фильмы [HD 720p, 1080p] (Хороший звук DUB, MVO) [ 4.29 GB ] Любовники / Two Lovers [2008 BDRip 720p by msltel] MVO msltel Скачать
1 | 0
Фильмы без перевода [ 1.52 GB ] Любовники / The Lovers [2015 HDRip Оригинал] makarevich Скачать
1 | 0
Фильмы 2006-2008 [ 2.18 GB ] Любовники / Two Lovers [2008 Мело . BDRip] nitles666 Скачать
1 | 0

28-11-2019 20:33  

Отключить всю рекламу на сайте

    Дорогой пользователь! Огромная просьба, поблагодарите релизера, оцените раздачу и оставьте свои комментарий, если Вы скачали Любовники через торрент бесплатно! Внесите свою лепту в развитие PiratBit!
    Комментировать посты могут только пользователи прошедшие не сложную регистрацию
    Показать сообщения:    

    Любовники через торрент
    Скачать бесплатно Любовники
    Любовники скачать торрент
    Любовники смотреть онлайн
    Cкачать фильм Любовники бесплатно
    Любовники скачать торрент в хорошем качестве
    Любовники смотреть онлайн бесплатно в хорошем качестве


    Вы не можете начинать темы
    Вы не можете отвечать на сообщения
    Вы не можете редактировать свои сообщения
    Вы не можете удалять свои сообщения
    Вы не можете голосовать в опросах
    Вы не можете прикреплять файлы к сообщениям
    Вы можете скачивать файлы