2 сезон

iTunes

MVO

1

2 сезон

iTunes

iTunes

1 сезон

RePack

30

Новинка

ВАЖНО

ИГРА 18+

pack

RePack

MK11
pack

Легкие деньги

RePack

jed

RePack

fifa19

RePack

RDR2

RePack

NEED FOR SPEED™ PAYBACK

4 сезон

9 сезон

Бесстыжие 9 сезон

Все сериалы

все сериалы на PB.wtf

RePack

FAR CRY 5

Anonymous, добрый вечер, мы не успеваем собрать деньги на оплату серверов за декабрь и январь, помогите нам пожалуйста в это трудное время. В качестве благодарности мы отключим Вам всю рекламу на сайте (укажите свой ник в строку Ваше имя)!

×
  
Magnet ссылка

Мертвец из Тумстоуна 2 / Dead Again in Tombstone (Роэль Рейн) [2017, вестерн, HDRip] MVO ["Paradox" & Omskbird records] pb.wtf

Мертвец из Тумстоуна 2 через торрент pb.wtf

Раздают: 1 [ 0 KB/s ]
Размер: 1.37 GB | Добавлен: 2 года 3 мес. назад | Торрент скачан:239 раз
Скачать  

23-09-2018 09:58 Мертвец из Тумстоуна 2 Скачать торрент  

Мертвец из Тумстоуна 2 / Dead Again in Tombstone

Год выпуска: 2017
Страна: США
Жанр: вестерн

Продолжительность: 01:39:08
Перевод: Любительский (многоголосый закадровый) ["Paradox" & Omskbird records]
Примечание: Релиз без рекламы
Режиссер: Роэль Рейн
В ролях:

Дэнни Трехо (Guerrero), Джейк Бьюзи (Col. Jackson Boomer), Элисия Ротару (Alicia), Дин МакДермотт (Dr. Goldsworthy), Натаниель Арканд (Bull Dog), Элиабет Лавендер (Madame Du Vere), Дэйв Бёрчилл (Denizen), Leslie Hucul (Townfolk), Джон Тирни (Jeremiah), Питер Скаген (Mr. Cravens), Мишель Риос (Zerelda De La Cruz), Джо Норман Шоу (Sheriff Judkins)
Описание:
Герреро Эрнандес, вынужденный прислужник дьявола, снова отправляется в мир живых, и поездка обещает быть чертовски захватывающей. На сей раз Герреро предстоит защищать похищенную реликвию от лап Джексона Бумера и его банды, но Джексон ни перед чем не остановится ради того, чтобы воскресить своих собратьев из мёртвых и устроить ад на земле. Герреро придётся использовать все свои тёмные силы, чтобы победить Бумера и найти искупление... или снова умереть.
Рейтинг:
rating
MPAA: R - Лицам до 17 лет обязательно присутствие взрослого
Качество: HDRip
Формат: AVI
Видео: XviD, 720x400 (16:9), 1507 kbps, 23,976 fps, 0,218 bpp
Аудио: AC3 / 2.0 / 48 kHz / 384 kbps /

General
Complete name : D:\Dead.Again.in.Tombstone.2017.HDRip.Rustorrent.avi
Format : AVI
Format/Info : Audio Video Interleave
File size : 1.37 GiB
Duration : 1 h 39 min
Overall bit rate : 1 979 kb/s
Movie name : Rustorren.pw
Writing application : VirtualDubMod 1.5.10.3 | www.virtualdub-fr.org || (build 2550/release)

Video
ID : 0
Format : MPEG-4 Visual
Format profile : Advanced Simple@L5
Format settings, BVOP : 1
Format settings, QPel : No
Format settings, GMC : No warppoints
Format settings, Matrix : Custom
Codec ID : XVID
Codec ID/Hint : XviD
Duration : 1 h 39 min
Bit rate : 1 508 kb/s
Width : 720 pixels
Height : 400 pixels
Display aspect ratio : 16:9
Frame rate : 23.976 (23976/1000) FPS
Color space : YUV
Chroma subsampling : 4:2:0
Bit depth : 8 bits
Scan type : Progressive
Compression mode : Lossy
Bits/(Pixel*Frame) : 0.218
Stream size : 1.04 GiB (76%)
Writing library : XviD 1.2.1 (UTC 2008-12-04)

Audio
ID : 1
Format : AC-3
Format/Info : Audio Coding 3
Mode extension : CM (complete main)
Format settings, Endianness : Big
Codec ID : 2000
Duration : 1 h 39 min
Bit rate mode : Constant
Bit rate : 384 kb/s
Channel(s) : 2 channels
Channel positions : Front: L R
Sampling rate : 48.0 kHz
Frame rate : 31.250 FPS (1536 spf)
Compression mode : Lossy
Stream size : 272 MiB (19%)
Alignment : Split accross interleaves
pb.wtf



Скачать Мертвец из Тумстоуна 2 через торрент http://i89.fastpic.ru/big/2018/0923/23/a41665e058678246e2aa5150104e3f23.jpg Скачать фильм Мертвец из Тумстоуна 2 через торрент бесплантно в хорошем качестве Описание: Герреро Эрнандес, вынужденный прислужник дьявола, снова отправляется в мир живых, и поездка обещает быть чертовски захватывающей. ... 9.9 10 15
Торрент: Зарегистрирован [2018-09-23 09:58] · скачан: 239 раз
Статус: T временная
Размер: 1.37 GB
Как cкачать? Как скачать Мертвец из Тумстоуна 2 через торрент | UTorrent

% Раздел Тема Автор DL S | L
T Фильмы [HD 720p, 1080p] (Хороший звук DUB, MVO) [ 7.92 GB ] Мертвец из Тумстоуна 2 / Dead Again in Tombstone [2017 BDRip 1080p] MVO ["Paradox" & Omskbird records] -Lexx- Скачать
1 | 0

28-11-2019 20:33  

Отключить всю рекламу на сайте

    Дорогой пользователь! Огромная просьба, поблагодарите релизера, оцените раздачу и оставьте свои комментарий, если Вы скачали Мертвец из Тумстоуна 2 через торрент бесплатно! Внесите свою лепту в развитие PiratBit!
    Комментировать посты могут только пользователи прошедшие не сложную регистрацию
    Показать сообщения:    

    Мертвец из Тумстоуна 2 через торрент
    Скачать бесплатно Мертвец из Тумстоуна 2
    Мертвец из Тумстоуна 2 скачать торрент
    Мертвец из Тумстоуна 2 смотреть онлайн
    Cкачать фильм Мертвец из Тумстоуна 2 бесплатно
    Мертвец из Тумстоуна 2 скачать торрент в хорошем качестве
    Мертвец из Тумстоуна 2 смотреть онлайн бесплатно в хорошем качестве


    Вы не можете начинать темы
    Вы не можете отвечать на сообщения
    Вы не можете редактировать свои сообщения
    Вы не можете удалять свои сообщения
    Вы не можете голосовать в опросах
    Вы не можете прикреплять файлы к сообщениям
    Вы можете скачивать файлы