Ссылка на приватное зеркало всего за 1$. Внимание количество ограничено!!!

OK

1+1

iTunes

мы

OK

1

WEB-DLRip

Джокер

Пифагор

Ведьмак / The Witcher сериал

iTunes

ПШазам

ОК

Оно 2

iTunes

30
pack

Вам бонус

ВАЖНО

!!Акция!!

Alien_RageХит недели

RePack

Resident Evil 21

ИГРА 18+

pack

RePack

jed

RePack

fifa19

RePack

Assassins Creed: Odyssey

RePack

NEED FOR SPEED™ PAYBACK

4 сезон

9 сезон

Бесстыжие 9 сезон

Все сериалы

все сериалы на PB.wtf

RePack

FAR CRY 5
  

Свадьба мечты / Wedding of Dreams (Пэт Уильямс) [2018, комедия, HDTVRip 720p] MVO ["Синема УС"] pb.wtf

Свадьба мечты через торрент pb.wtf

Размер: 2.95 GB | Добавлен: 1 год 4 мес. назад | Торрент скачан:19 раз
Скачать  

23-09-2018 12:28 Свадьба мечты Скачать торрент  

Свадьба мечты / Wedding of DreamsГод выпуска: 2018
Страна: США
Жанр: комедия
Продолжительность: 01:26:30
Перевод: Любительский (многоголосый) | "Синема УС"
Субтитры: отсутствуют

Режиссер: Пэт Уильямс

rating

В ролях:

Дебби Гибсон, Роберт Гант, Паскаль Хаттон, Лорен МакНамара, Кен Тремблетт, Лэйн Эдвардс, Сара Эдмондсон, Зения Маршалл, Мэтти Финочио, Майкл Тиган

Описание:

Дэбби живёт в маленьком городке, где встречает настоящую любовь и забывает о карьере певицы.

Качество: HDTVRip 720p
Формат: MKV

Видео: h.264, 4 497 kb/s, 1280x720
Аудио: Русский, (AC3, 2 ch, 384 Кбит/с)
скриншот  скриншот  скриншот  

Общее
Уникальный идентификатор : 172153252068145166200740459677917547775 (0x818382A4362418D4B398ABE75BA68CFF)
Полное имя : D:\Wedding.of.dreams.2018.P.HDTV.72Op_KOSHARA.mkv
Формат : Matroska
Версия формата : Version 2
Размер файла : 2,95 Гбайт
Продолжительность : 1 ч. 26 м.
Режим общего битрейта : Переменный
Общий поток : 4882 Кбит/сек
Дата кодирования : UTC 2018-09-21 19:47:31
Программа кодирования : mkvmerge v8.3.0 ('Over the Horizon') 64bit
Библиотека кодирования : libebml v1.3.1 + libmatroska v1.4.2

Видео
Идентификатор : 1
Формат : AVC
Формат/Информация : Advanced Video Codec
Профиль формата : High@L4.1
Параметр CABAC формата : Да
Параметр RefFrames формата : 4 кадра
Идентификатор кодека : V_MPEG4/ISO/AVC
Продолжительность : 1 ч. 26 м.
Вид битрейта : Переменный
Битрейт : 4497 Кбит/сек
Максимальный битрейт : 5000 Кбит/сек
Ширина : 1280 пикселей
Высота : 720 пикселей
Соотношение сторон : 16:9
Режим частоты кадров : Постоянный
Частота кадров : 23,976 (24000/1001) кадра/сек
Стандарт вещания : Component
Цветовое пространство : YUV
Субдискретизация насыщенности : 4:2:0
Битовая глубина : 8 бит
Тип развёртки : Прогрессивная
Бит/(Пиксели*Кадры) : 0.199
Размер потока : 2,66 Гбайт (90%)
Default : Да
Forced : Нет
Цветовой диапазон : Limited
Основные цвета : BT.709
Характеристики трансфера : BT.709
Коэффициенты матрицы : BT.709

Аудио
Идентификатор : 2
Формат : AC-3
Формат/Информация : Audio Coding 3
Расширение режима : CM (complete main)
Параметр Endianness формата : Big
Идентификатор кодека : A_AC3
Продолжительность : 1 ч. 26 м.
Вид битрейта : Постоянный
Битрейт : 384 Кбит/сек
Каналы : 2 канала
Расположение каналов : Front: L R
Частота : 48,0 КГц
Частота кадров : 31,250 кадров/сек (1536 spf)
Метод сжатия : С потерями
Размер потока : 238 Мбайт (8%)
Default : Да
Forced : Нет

pb.wtf



Скачать Свадьба мечты через торрент http://img11.lostpic.net/2018/09/23/3db5a0e73fbcfa0bc63f64307d1391fd.jpg Скачать фильм Свадьба мечты через торрент бесплантно в хорошем качестве Описание: Дэбби живёт в маленьком городке, где встречает настоящую любовь и забывает о карьере ... 9.4 10 5
Торрент: Зарегистрирован [2018-09-23 12:28] · скачан: 19 раз
Статус: T временная
Размер: 2.95 GB
Как cкачать? Как скачать Свадьба мечты через торрент | qTorrent

% Раздел Тема Автор DL S | L
T Фильмы (мультфильмы) cо спонсором показа (Новинки AVI/MKV) [ 1.37 GB ] Свадьба мечты / Wedding of Dreams [2018 HDTVRip] MVO ["Синема УС"] bober100 Скачать
1 | 0

28-11-2019 20:33  

Отключить всю рекламу на сайте

    Дорогой пользователь! Огромная просьба, поблагодарите релизера, оцените раздачу и оставьте свои комментарий, если Вы скачали Свадьба мечты через торрент бесплатно! Внесите свою лепту в развитие PiratBit!
    Комментировать посты могут только пользователи прошедшие не сложную регистрацию
    Показать сообщения:    

    Свадьба мечты через торрент
    Скачать бесплатно Свадьба мечты
    Свадьба мечты скачать торрент
    Свадьба мечты смотреть онлайн
    Cкачать фильм Свадьба мечты бесплатно
    Свадьба мечты скачать торрент в хорошем качестве
    Свадьба мечты смотреть онлайн бесплатно в хорошем качестве


    Вы не можете начинать темы
    Вы не можете отвечать на сообщения
    Вы не можете редактировать свои сообщения
    Вы не можете удалять свои сообщения
    Вы не можете голосовать в опросах
    Вы не можете прикреплять файлы к сообщениям
    Вы можете скачивать файлы