Marvel's Avengers Deluxe Edition (супер цена) 159р. Внимание количество ограничено!!!

2 сезон

iTunes

iTunes

1

iTunes

iTunes

iTunes

WEBRip

iTunes

30
pack

Новость дня

ВАЖНО

!!Акция!!

Alien_RageХит недели

RePack

Horizon Zero Dawn

ИГРА 18+

pack

RePack

jed

!!Акция!!

Alien_Rage

RePack

fifa19

RePack

Assassins Creed: Odyssey

RePack

NEED FOR SPEED™ PAYBACK

4 сезон

9 сезон

Бесстыжие 9 сезон

Все сериалы

все сериалы на PB.wtf

RePack

FAR CRY 5
  

Упущенная возможность / Lost Fare (Брюс Логан) [2018, Триллер, драма, криминал, WEB-DL 720p] MVO ["Синема УС"] pb.wtf

Упущенная возможность через торрент pb.wtf

Размер: 3.42 GB | Добавлен: 1 год 11 мес. назад | Торрент скачан:9 раз
Скачать  

23-09-2018 12:55 Упущенная возможность Скачать торрент  

Упущенная возможность / Lost FareГод выпуска: 2018
Страна: США
Жанр: Триллер, драма, криминал
Продолжительность: 01:32:49
Перевод: Любительский (многоголосый) | "Синема УС"
Субтитры: отсутствуют

Режиссер: Брюс Логан

rating

В ролях:

Алексис Росински, Аарон Хэндри, Аннабель Кавана, Джейсон Амброзе, Анита Лиман, Валерия Вальехос, Макс Роуз, Тилль Уолтер, Маркус Боубсич, Кенни Джонстон

Описание:

Водитель такси с суицидальными наклонностями подбирает одиннадцатилетнюю больную девочку, которая сбежала от сумасшедшего парня своей матери. Вместе с этим водителем она собирается вернуть своего брата.

Качество: WEB-DL 720p
Формат: MKV

Видео: XviD, 4 888 kb/s, 1280x688
Аудио#1: Русский, (AC3, 2 ch, 384 Кбит/с)
скриншот  скриншот  скриншот  

Общее
Уникальный идентификатор : 220616790440489333181352377890786000808 (0xA5F93F9038AEE827AB93EA83D7D43FA8)
Полное имя : D:\Lost.Fare.2018.P.WEB-DL.72Op_KOSHARA.mkv
Формат : Matroska
Версия формата : Version 2
Размер файла : 3,42 Гбайт
Продолжительность : 1 ч. 32 м.
Режим общего битрейта : Переменный
Общий поток : 5273 Кбит/сек
Дата кодирования : UTC 2018-09-21 15:27:18
Программа кодирования : mkvmerge v8.3.0 ('Over the Horizon') 64bit
Библиотека кодирования : libebml v1.3.1 + libmatroska v1.4.2

Видео
Идентификатор : 1
Формат : AVC
Формат/Информация : Advanced Video Codec
Профиль формата : High@L4.1
Параметр CABAC формата : Да
Параметр RefFrames формата : 4 кадра
Идентификатор кодека : V_MPEG4/ISO/AVC
Продолжительность : 1 ч. 32 м.
Вид битрейта : Переменный
Битрейт : 4888 Кбит/сек
Максимальный битрейт : 5500 Кбит/сек
Ширина : 1280 пикселей
Высота : 688 пикселей
Соотношение сторон : 1,85:1
Режим частоты кадров : Постоянный
Частота кадров : 23,976 (24000/1001) кадра/сек
Стандарт вещания : Component
Цветовое пространство : YUV
Субдискретизация насыщенности : 4:2:0
Битовая глубина : 8 бит
Тип развёртки : Прогрессивная
Бит/(Пиксели*Кадры) : 0.227
Размер потока : 3,10 Гбайт (91%)
Default : Да
Forced : Нет
Цветовой диапазон : Limited
Основные цвета : BT.709
Характеристики трансфера : BT.709
Коэффициенты матрицы : BT.709

Аудио
Идентификатор : 2
Формат : AC-3
Формат/Информация : Audio Coding 3
Расширение режима : CM (complete main)
Параметр Endianness формата : Big
Идентификатор кодека : A_AC3
Продолжительность : 1 ч. 32 м.
Вид битрейта : Постоянный
Битрейт : 384 Кбит/сек
Каналы : 2 канала
Расположение каналов : Front: L R
Частота : 48,0 КГц
Частота кадров : 31,250 кадров/сек (1536 spf)
Метод сжатия : С потерями
Размер потока : 255 Мбайт (7%)
Default : Да
Forced : Нет

pb.wtf



Скачать Упущенная возможность через торрент http://img11.lostpic.net/2018/09/23/dc90b877b7e70181203212b5d7f4a10f.jpg Скачать фильм Упущенная возможность через торрент бесплантно в хорошем качестве Описание: Водитель такси с суицидальными наклонностями подбирает одиннадцатилетнюю больную девочку, которая сбежала от сумасшедшего парня ... 10 10 4
Торрент: Зарегистрирован [2018-09-23 12:55] · скачан: 9 раз
Статус: T временная
Размер: 3.42 GB
Как cкачать? Как скачать Упущенная возможность через торрент | qTorrent

% Раздел Тема Автор DL S | L
T Фильмы (мультфильмы) cо спонсором показа (Новинки AVI/MKV) [ 1.37 GB ] Упущенная возможность / Lost Fare [2018 WEB-DLRip] MVO ["Синема УС"] bober100 Скачать
1 | 0

28-11-2019 20:33  

Отключить всю рекламу на сайте

    Дорогой пользователь! Огромная просьба, поблагодарите релизера, оцените раздачу и оставьте свои комментарий, если Вы скачали Упущенная возможность через торрент бесплатно! Внесите свою лепту в развитие PiratBit!
    Комментировать посты могут только пользователи прошедшие не сложную регистрацию
    Показать сообщения:    

    Упущенная возможность через торрент
    Скачать бесплатно Упущенная возможность
    Упущенная возможность скачать торрент
    Упущенная возможность смотреть онлайн
    Cкачать фильм Упущенная возможность бесплатно
    Упущенная возможность скачать торрент в хорошем качестве
    Упущенная возможность смотреть онлайн бесплатно в хорошем качестве


    Вы не можете начинать темы
    Вы не можете отвечать на сообщения
    Вы не можете редактировать свои сообщения
    Вы не можете удалять свои сообщения
    Вы не можете голосовать в опросах
    Вы не можете прикреплять файлы к сообщениям
    Вы можете скачивать файлы