Ссылка на приватное зеркало всего за 1$. Внимание количество ограничено!!!

OK

1+1

iTunes

мы

OK

1

WEB-DLRip

Джокер

Пифагор

Ведьмак / The Witcher сериал

Лицензия

ПШазам

ОК

Оно 2

iTunes

30
pack

Вам бонус

ВАЖНО

!!Акция!!

Alien_RageХит недели

RePack

Resident Evil 21

ИГРА 18+

pack

RePack

jed

RePack

fifa19

RePack

Assassins Creed: Odyssey

RePack

NEED FOR SPEED™ PAYBACK

4 сезон

9 сезон

Бесстыжие 9 сезон

Все сериалы

все сериалы на PB.wtf

RePack

FAR CRY 5
  

Безумие / Frenzy (Хосе Монтесинос) [2018, Ужасы, фантастика, боевик, триллер, драма, приключения, WEB-DL 720p] MVO ["Синема УС"] pb.wtf

Безумие через торрент pb.wtf

Размер: 2.96 GB | Добавлен: 1 год 3 мес. назад | Торрент скачан:126 раз
Скачать  

23-09-2018 15:33 Безумие Скачать торрент  

Безумие / Frenzy
Год выпуска: 2018
Страна: США
Жанр: Ужасы, фантастика, боевик, триллер, драма, приключения
Продолжительность: 01:25:44
Перевод: Любительский (многоголосый) | "Синема УС"
Субтитры: отсутствуют

Режиссер: Хосе Монтесинос

rating

В ролях:

Обри Рейнольдс, Джина Витори, Ланеет Тачел, Тейлор Йоргенсен, Майкл С. Нью, Папа Бустос, Расселл Джеффри Бэнкс

Описание:

Компания друзей запускает популярный туристический видеоблог, который помогает финансировать их приключения. Пейдж, лидер группы, зовёт свою младшую сестру Линдси нырять с аквалангом в изолированную бухту. Когда их самолет падает, две сестры должны использовать все свои силы, находчивость и мужество, чтобы выжить в стае больших белых акул.

Качество: WEB-DL 720p
Формат: AVI

Видео: h.264, 4 550 Кбит/с, 1280x718
Аудио#1: Русский, (AC3, 2 ch, 384 Кбит/с)
скриншот  скриншот  скриншот  

Общее
Уникальный идентификатор : 171383112220886806150691187371192412460 (0x80EF2FD0BD156E7A9915BE641B80E92C)
Полное имя : D:\Frenzy.2018.P.WEB-DL.72Op.mkv
Формат : Matroska
Версия формата : Version 2
Размер файла : 2,96 Гбайт
Продолжительность : 1 ч. 25 м.
Режим общего битрейта : Переменный
Общий поток : 4936 Кбит/сек
Дата кодирования : UTC 2018-09-23 11:39:06
Программа кодирования : mkvmerge v8.3.0 ('Over the Horizon') 64bit
Библиотека кодирования : libebml v1.3.1 + libmatroska v1.4.2

Видео
Идентификатор : 1
Формат : AVC
Формат/Информация : Advanced Video Codec
Профиль формата : High@L4.1
Параметр CABAC формата : Да
Параметр RefFrames формата : 4 кадра
Идентификатор кодека : V_MPEG4/ISO/AVC
Продолжительность : 1 ч. 25 м.
Вид битрейта : Переменный
Битрейт : 4550 Кбит/сек
Максимальный битрейт : 5000 Кбит/сек
Ширина : 1280 пикселей
Высота : 718 пикселей
Соотношение сторон : 16:9
Режим частоты кадров : Постоянный
Частота кадров : 23,976 (24000/1001) кадра/сек
Стандарт вещания : Component
Цветовое пространство : YUV
Субдискретизация насыщенности : 4:2:0
Битовая глубина : 8 бит
Тип развёртки : Прогрессивная
Бит/(Пиксели*Кадры) : 0.202
Размер потока : 2,67 Гбайт (90%)
Default : Да
Forced : Нет
Цветовой диапазон : Limited
Основные цвета : BT.709
Характеристики трансфера : BT.709
Коэффициенты матрицы : BT.709

Аудио
Идентификатор : 2
Формат : AC-3
Формат/Информация : Audio Coding 3
Расширение режима : CM (complete main)
Параметр Endianness формата : Big
Идентификатор кодека : A_AC3
Продолжительность : 1 ч. 25 м.
Вид битрейта : Постоянный
Битрейт : 384 Кбит/сек
Каналы : 2 канала
Расположение каналов : Front: L R
Частота : 48,0 КГц
Частота кадров : 31,250 кадров/сек (1536 spf)
Метод сжатия : С потерями
Размер потока : 236 Мбайт (8%)
Default : Да
Forced : Нет

pb.wtf



Скачать Безумие через торрент http://img11.lostpic.net/2018/09/23/2b842e0ebe4128a505620e7fe7dcdd35.jpg Скачать фильм Безумие через торрент бесплантно в хорошем качестве Описание: Компания друзей запускает популярный туристический видеоблог, который помогает финансировать их приключения. Пейдж, лидер группы, ... 8.4 10 5
Торрент: Зарегистрирован [2018-09-23 15:33] · скачан: 126 раз
Статус: T временная
Размер: 2.96 GB
Как cкачать? Как скачать Безумие через торрент | qTorrent

% Раздел Тема Автор DL S | L
T Фильмы (мультфильмы) cо спонсором показа (Новинки AVI/MKV) [ 1.37 GB ] Безумие / Frenzy [2018 WEB-DLRip] MVO ["Синема УС"] bober100 Скачать
1 | 0
Фильмы [HD 720p, 1080p] (Хороший звук DUB, MVO) [ 10.78 GB ] Безумие / Frenzy [1972 BDRip 1080p by msltel] DUB MVO msltel Скачать
1 | 0
Фильмы [HD 720p, 1080p] (Хороший звук DUB, MVO) [ 4.11 GB ] Безумие / Frenzy [1972 BDRip 720p by msltel] DUB MVO msltel Скачать
1 | 0
Фильмы до 2000 г. [ 2.57 GB ] Безумие / Frenzy [1972 BDRip AVC by msltel] DUB MVO msltel Скачать
1 | 0
Порно фильмы HD [ 13.65 GB ] Aнальнoe Безумие 2 / Anal Frenzy 2 [2013 All Sex Anal Deep Throat POV 1080p WEB-DL] лисяра Скачать
1 | 0
Гонзо [ 3.46 GB ] Анальное безумие 2 / Anal Frenzy 2 [2013 All sex Oral Anal Gonzo BigTits Porn Stars WEB-DLRip Оригинал] sheker187 Скачать
1 | 0
Порно фильмы HD [ 11.52 GB ] Анальное Безумие / Anal Frenzy [2010 Anal Gonzo POV+ Hardcore WEB-DL 720p Оригинал] sheker187 Скачать
1 | 0

28-11-2019 20:33  

Отключить всю рекламу на сайте

24-09-2018 13:52 Безумие Скачать торрент  

Фильм полное говно, зря потраченное время. Есть еще дауны-режиссеры которые снимают такой шлак.pb.wtf



    Дорогой пользователь! Огромная просьба, поблагодарите релизера, оцените раздачу и оставьте свои комментарий, если Вы скачали Безумие через торрент бесплатно! Внесите свою лепту в развитие PiratBit!
    Комментировать посты могут только пользователи прошедшие не сложную регистрацию
    Показать сообщения:    

    Безумие через торрент
    Скачать бесплатно Безумие
    Безумие скачать торрент
    Безумие смотреть онлайн
    Cкачать фильм Безумие бесплатно
    Безумие скачать торрент в хорошем качестве
    Безумие смотреть онлайн бесплатно в хорошем качестве


    Вы не можете начинать темы
    Вы не можете отвечать на сообщения
    Вы не можете редактировать свои сообщения
    Вы не можете удалять свои сообщения
    Вы не можете голосовать в опросах
    Вы не можете прикреплять файлы к сообщениям
    Вы можете скачивать файлы