>

5.6

iTunes

7.4

MVO

5.7

MVO

1

7.4

1 сезон

6.8

iTunes

7.2

1 сезон

13

6.7

1 сезон

8.3

RePack

30

Deluxe

pack

9.9

Лицензия

ВАЖНО

ИГРА 18+

pack

7.3

RePack

MK11

7.7

RePack

jed

7.8

RePack

fifa19

8.5

RePack

RDR2

RePack

NEED FOR SPEED™ PAYBACK

4 сезон

9 сезон

Бесстыжие 9 сезон

Все сериалы

все сериалы на PB.wtf

RePack

FAR CRY 5

Anonymous, добрый вечер, мы катастрофически не успеваем собрать деньги на оплату серверов, помогите нам пожалуйста 5,10,15р., для нас важна любая помощь . В качестве благодарности мы отключим Вам всю рекламу на сайте (укажите свой ник в строку Ваше имя)!

×
  
Magnet ссылка

Призыв демона крови / Blood Demon Rising (Гарри Чиньски) [2017 г., ужасы, триллер, WEB-DLRip] MVO [КОЛОБОК] pb.wtf

Призыв демона крови через торрент pb.wtf

Размер: 1.37 GB | Добавлен: 3 года назад | Торрент скачан:79 раз
Смотреть онлайн Призыв демона крови | Скачать    Ребята, помогите собрать деньги на оплату серверов!!!

23-09-2018 18:54 Призыв демона крови Скачать торрент  

Призыв демона крови / Blood Demon Rising
Год выпуска: 2017
Страна: США
Жанр: Ужасы, триллер
Продолжительность: 01:32:04
Перевод: Любительский (многоголосый) КОЛОБОК

Режиссер: Гарри Чиньски

rating

В ролях: Стивен Лестат, Логан Литтлфилд, Рони Коллинз, Симоне Леорин, Норман Ньюкирк, Анжела Гарнер, Челси Тиллих, Том Риччьярделли, Габриэль Урбан

Описание: За безобидным фасадом дома ужасов скрываются настоящие кошмары - демон Гримис был призван в наш мир, и в его честь устраиваются самые изощрённые пытки. Пока на расследование отправляется отец Самуил, две влюблённых парочки оказываются не в то время не в том месте...
Качество: WEB-DLRip
Формат: AVI
Видео кодек: XviD
Аудио кодек: AC3
Видео: XviD, 1732 Кбит/с, 720x400
Аудио: Русский, AC3, 2 ch, 384 Кбит/с

Видео
Идентификатор : 0
Формат : MPEG-4 Visual
Профиль формата : Advanced Simple@L5
Настройки формата : BVOP2 / Custom Matrix
Параметр BVOP формата : 2
Параметр QPel формата : Нет
Параметр GMC формата : Без точки перехода
Параметр матрицы формата : Выборочная
Идентификатор кодека : XVID
Идентификатор кодека/Подсказка : XviD
Продолжительность : 1 ч. 32 м.
Битрейт : 1732 Кбит/сек
Ширина : 720 пикселей
Высота : 400 пикселей
Соотношение сторон : 16:9
Частота кадров : 23,976 (24000/1001) кадра/сек
Цветовое пространство : YUV
Субдискретизация насыщенности : 4:2:0
Битовая глубина : 8 бит
Тип развёртки : Прогрессивная
Метод сжатия : С потерями
Бит/(Пиксели*Кадры) : 0.251
Размер потока : 1,11 Гбайт (81%)
Библиотека кодирования : XviD 1.2.1 (UTC 2008-12-04)

Аудио
Идентификатор : 1
Формат : AC-3
Формат/Информация : Audio Coding 3
Идентификатор кодека : 2000
Продолжительность : 1 ч. 32 м.
Вид битрейта : Постоянный
Битрейт : 384 Кбит/сек
Каналы : 2 канала
Расположение каналов : Front: L R
Частота : 48,0 КГц
Частота кадров : 31,250 кадров/сек (1536 SPF)
Битовая глубина : 16 бит
Метод сжатия : С потерями
Размер потока : 253 Мбайт (18%)
Выравнивание : Разделение по промежуткам
Продолжительность промежутка : 42 мс. (1,00 видеокадр)
Время предзагрузки промежутка : 500 мс.
ServiceKind/String : Complete Main

скриншот   скриншот   скриншот   скриншот   скриншот  

Присутствуют вставки голосовой и текстовой рекламы!pb.wtf



Скачать Призыв демона крови через торрент https://pic1.kartinco.top/images/11/i5ua5.jpg Скачать, смотреть онлайн Призыв демона крови бесплантно в хорошем качестве Описание: За безобидным фасадом дома ужасов скрываются настоящие кошмары - демон Гримис был призван в наш мир, и в его честь устраиваются ... 10 10 3
Торрент: Зарегистрирован [2018-09-23 18:54] · скачан: 79 раз
Статус: T временная
Размер: 1.37 GB
Как cкачать? Как скачать Призыв демона крови через торрент | UTorrent



Последний раз редактировалось: Леонид Ильич (2018-09-23 19:46), всего редактировалось 1 раз

28-11-2019 20:33  

Отключить всю рекламу на сайте

23-09-2018 19:36 Призыв демона крови Скачать торрент  

    Дорогой пользователь! Огромная просьба, поблагодарите релизера, оцените раздачу и оставьте свои комментарий, если Вы скачали Призыв демона крови через торрент бесплатно!
    Комментировать посты могут только пользователи прошедшие не сложную регистрацию
    Показать сообщения:    

    Призыв демона крови через торрент
    Скачать бесплатно Призыв демона крови
    Призыв демона крови скачать торрент
    Призыв демона крови смотреть онлайн
    Cкачать фильм Призыв демона крови бесплатно
    Призыв демона крови скачать торрент в хорошем качестве
    Призыв демона крови смотреть онлайн бесплатно в хорошем качестве


    Вы не можете начинать темы
    Вы не можете отвечать на сообщения
    Вы не можете редактировать свои сообщения
    Вы не можете удалять свои сообщения
    Вы не можете голосовать в опросах
    Вы не можете прикреплять файлы к сообщениям
    Вы можете скачивать файлы