новый адрес
Ссылка на приватное зеркало всего за 1$. Внимание количество ограничено!!!

iTunes

1+1

iTunes

мы

iTunes

1

iTunes

Чернобыль

iTunes

Ральф против интернета

Лицензия

ПШазам

Лицензия

Оно 2

Лицензия

30
pack

Вам бонус

ВАЖНО

!!Акция!!

Alien_RageХит недели

RePack

Resident Evil 21

ИГРА 18+

pack

RePack

jed

!!Акция!!

Alien_Rage

RePack

fifa19

RePack

Assassins Creed: Odyssey

RePack

NEED FOR SPEED™ PAYBACK

3 сезон

9 сезон

Бесстыжие 9 сезон

Все сериалы

все сериалы на PB.wtf

RePack

FAR CRY 5
Ребята, катастрофически не хватает 1900р. для оплаты серверов за Октябрь (всвязи с блокировками трафик упал в 3 раза), 1-2р., выручайте.
  

Сообщество / The Row (Мэтти Бекерман) [2018, Триллер, BDRip-AVC] MVO [HDRezka Studio] - ExKinoRay pb.wtf

Сообщество через торрент pb.wtf

Размер: 2.25 GB | Добавлен: 1 год 2 мес. назад | Торрент скачан:205 раз
Скачать  

24-09-2018 00:35 Сообщество Скачать торрент  

Информация о фильме
Название: Сообщество
Оригинальное название: The Row
Год выхода: 2018
Жанр: Триллер
Режиссер: Мэтти Бекерман
В ролях: Лорин Кент, Колин Эглсфилд, Дилан Спрейберри, Миа Фрэмптон, Сара МакДэниел, Рэнди Кутюр, Лекси Аткинс, Малия Ричардсон, Ши Бакнер, Река Рене

Описание:
Юная девушка Райли – дочь известного детектива, который чрезмерно опекает ее. Поступление в институт становится той отдушиной в жизни девушки, которой ей так давно не хватало. Теперь она чувствует себя взрослой и свободной. Новые ощущения, романтические моменты, любовные развлечения просто дурманят разум Райли. Основная цель новоиспеченной студентки – вступление в самое крутое сестринское сообщество, где правят особые правила и традиции. Оказаться среди девчонок закрытого клуба очень сложно, они устраивают первокурсницам жесткий отбор, где побеждает сильнейший. Начало студенческой жизни для Райли идет лучшим образом, до тех пор, пока череду развлечений не накрывает волной жестоких преступлений. В университете объявился чудовищный убийца, атакам которого подверглось множество красивых девушек. Маньяк безжалостно потрошит своих жертв, после чего делает из них настоящих кукол. Яркий наряд и вызывающий макияж нагоняет страх даже на сотрудников полиции, которые ведут это расследование. Отец Райли очень переживает за нее и просит держаться подальше от вечеринок, незнакомых парней и сестринского сообщества. Но с каждым днем психопат подбирается все ближе и ближе.



Выпущено: Канада, США, Emmett/Furla/Oasis Film
Продолжительность: 01:25:42
Перевод: Профессиональный многоголосый [HDrezka Studio]

Формат: MKV
Качество: BDRip-AVC | исх. The.Row.2018.1080p.BluRay.REMUX.ExKinoRay |
Видео: MPEG-4 AVC, 1024x552 (1.85:1), 3120 kbps, 23,976 fps
Звук#1: Русский, AC3, 5.1, 48 kHz, 384 kbps | HDrezka Studio
Звук#2: Английский, AC3, 5.1, 48 kHz, 448 kbps | оригинал
Субтитры: Английские
General
Unique ID : 194662145573897080204619871313630772706 (0x927290C5EA3ED4EF9787EB4A8E1ABDE2)
Complete name : D:\The.Row.2018.MVO.BDRip.AVC.ExKinoRay.mkv
Format : Matroska
Format version : Version 2
File size : 2.25 GiB
Duration : 1 h 25 min
Overall bit rate : 3 761 kb/s
Movie name : The Row 2018 from ExKinoRay
Encoded date : UTC 2018-09-23 23:28:37
Writing application : mkvmerge v5.6.0 ('Kenya Kane') built on May 27 2012 16:44:04
Writing library : libebml v1.2.3 + libmatroska v1.3.0

Video
ID : 1
Format : AVC
Format/Info : Advanced Video Codec
Format profile : High@L4.1
Format settings, CABAC : Yes
Format settings, ReFrames : 12 frames
Codec ID : V_MPEG4/ISO/AVC
Duration : 1 h 25 min
Bit rate : 3 120 kb/s
Width : 1 024 pixels
Height : 552 pixels
Display aspect ratio : 1.85:1
Frame rate mode : Constant
Frame rate : 23.976 (23976/1000) FPS
Color space : YUV
Chroma subsampling : 4:2:0
Bit depth : 8 bits
Scan type : Progressive
Bits/(Pixel*Frame) : 0.230
Stream size : 1.82 GiB (81%)
Title : Enigma
Writing library : x264 core 152 r2851 ba24899
Encoding settings : cabac=1 / ref=12 / deblock=1:-2:-2 / analyse=0x3:0x113 / me=umh / subme=10 / psy=1 / psy_rd=1.00:0.10 / mixed_ref=1 / me_range=32 / chroma_me=1 / trellis=2 / 8x8dct=1 / cqm=0 / deadzone=21,11 / fast_pskip=0 / chroma_qp_offset=-3 / threads=12 / lookahead_threads=3 / sliced_threads=0 / nr=0 / decimate=0 / interlaced=0 / bluray_compat=0 / constrained_intra=0 / bframes=12 / b_pyramid=2 / b_adapt=2 / b_bias=0 / direct=3 / weightb=1 / open_gop=0 / weightp=2 / keyint=240 / keyint_min=23 / scenecut=40 / intra_refresh=0 / rc=2pass / mbtree=0 / bitrate=3120 / ratetol=1.0 / qcomp=0.60 / qpmin=0 / qpmax=51 / qpstep=4 / cplxblur=20.0 / qblur=0.5 / ip_ratio=1.40 / pb_ratio=1.30 / aq=1:1.00
Language : English
Default : Yes
Forced : No
Color range : Limited
Color primaries : BT.709
Transfer characteristics : BT.709
Matrix coefficients : BT.709

Audio #1
ID : 2
Format : AC-3
Format/Info : Audio Coding 3
Mode extension : CM (complete main)
Format settings, Endianness : Big
Codec ID : A_AC3
Duration : 1 h 25 min
Bit rate mode : Constant
Bit rate : 192 kb/s
Channel(s) : 2 channels
Channel positions : Front: L R
Sampling rate : 48.0 kHz
Frame rate : 31.250 FPS (1536 spf)
Compression mode : Lossy
Stream size : 118 MiB (5%)
Title : MVO
Language : Russian
Default : Yes
Forced : No

Audio #2
ID : 3
Format : AC-3
Format/Info : Audio Coding 3
Mode extension : CM (complete main)
Format settings, Endianness : Big
Codec ID : A_AC3
Duration : 1 h 25 min
Bit rate mode : Constant
Bit rate : 448 kb/s
Channel(s) : 6 channels
Channel positions : Front: L C R, Side: L R, LFE
Sampling rate : 48.0 kHz
Frame rate : 31.250 FPS (1536 spf)
Compression mode : Lossy
Stream size : 275 MiB (12%)
Language : English
Default : No
Forced : No

Text
ID : 4
Format : UTF-8
Codec ID : S_TEXT/UTF8
Codec ID/Info : UTF-8 Plain Text
Language : English
Default : No
Forced : No

Menu
00:00:00.000 : en:Chapter 01
00:04:48.087 : en:Chapter 02
00:09:50.764 : en:Chapter 03
00:14:04.142 : en:Chapter 04
00:20:08.673 : en:Chapter 05
00:24:02.574 : en:Chapter 06
00:30:14.695 : en:Chapter 07
00:36:18.893 : en:Chapter 08
00:40:36.942 : en:Chapter 09
00:45:32.654 : en:Chapter 10
00:51:37.102 : en:Chapter 11
00:54:29.857 : en:Chapter 12
01:00:56.661 : en:Chapter 13
01:05:10.247 : en:Chapter 14
01:10:29.233 : en:Chapter 15
01:17:20.852 : en:Chapter 16
Релиз от:

Автор релиза: pb.wtf



Скачать Сообщество через торрент https://c.radikal.ru/c43/1809/9e/a7d738c63b60.jpg Скачать фильм Сообщество через торрент бесплантно в хорошем качестве Описание:Юная девушка Райли – дочь известного детектива, который чрезмерно опекает ее. Поступление в институт становится той отдушиной в ... 8.2 10 10
Info! Золотая раздача, скачанное не засчитывается.
Торрент: Зарегистрирован [2018-09-24 00:35] · скачан: 205 раз
Статус: T временная
Размер: 2.25 GB
Как cкачать? Как скачать Сообщество через торрент | qTorrent

28-11-2019 20:33  

Отключить всю рекламу на сайте

    Дорогой пользователь! Огромная просьба, поблагодарите релизера, оцените раздачу и оставьте свои комментарий, если Вы скачали Сообщество через торрент бесплатно! Внесите свою лепту в развитие PiratBit!
    Комментировать посты могут только пользователи прошедшие не сложную регистрацию
    Показать сообщения:    

    Сообщество через торрент
    Скачать бесплатно Сообщество
    Сообщество скачать торрент
    Сообщество смотреть онлайн
    Cкачать фильм Сообщество бесплатно
    Сообщество скачать торрент в хорошем качестве
    Сообщество смотреть онлайн бесплатно в хорошем качестве


    Вы не можете начинать темы
    Вы не можете отвечать на сообщения
    Вы не можете редактировать свои сообщения
    Вы не можете удалять свои сообщения
    Вы не можете голосовать в опросах
    Вы не можете прикреплять файлы к сообщениям
    Вы можете скачивать файлы