Ссылка на приватное зеркало всего за 1$. Внимание количество ограничено!!!

OK

1+1

iTunes

мы

OK

1

WEB-DLRip

Джокер

Пифагор

Ведьмак / The Witcher сериал

Лицензия

ПШазам

ОК

Оно 2

iTunes

30
pack

Вам бонус

ВАЖНО

!!Акция!!

Alien_RageХит недели

RePack

Resident Evil 21

ИГРА 18+

pack

RePack

jed

!!Акция!!

Alien_Rage

RePack

fifa19

RePack

Assassins Creed: Odyssey

RePack

NEED FOR SPEED™ PAYBACK

4 сезон

9 сезон

Бесстыжие 9 сезон

Все сериалы

все сериалы на PB.wtf

RePack

FAR CRY 5
  

Дурная кровь / The Bad Seed (Роб Лоу) [2018, ужасы, драма, детектив, HDTVRip 720p] MVO ["Синема УС"] pb.wtf

Дурная кровь через торрент pb.wtf

Размер: 2.91 GB | Добавлен: 1 год 3 мес. назад | Торрент скачан:69 раз
Скачать  

24-09-2018 02:01 Дурная кровь Скачать торрент  

Дурная кровь / The Bad Seed
Год выпуска: 2018
Страна: США
Жанр: ужасы, драма, детектив
Продолжительность: 01:26:37
Перевод: Любительский (многоголосый) | "Синема УС"
Субтитры: отсутствуют

Режиссер: Роб Лоу

rating

В ролях:

Роб Лоу, МакКенна Грейс, Патриция МакКормак, Люк Росслер, Сара Дагдэйл, Лукас Стигалл, Джон Эммет Трэйси, Лорни Кардинал, Шона Йоханнесен, Марси Т. Хаус

Описание:

Родитель-одиночка и няня подозревают, что их, казалось бы, идеальная дочь — бессердечный убийца.

Качество: HDTVRip 720p
Формат: MKV

Видео: h.264,4 424 kb/s, 1280x638
Аудио#1: Русский, (AC3, 2 ch, 384 Кбит/с)
скриншот  скриншот  скриншот  

Общее
Уникальный идентификатор : 238466787884202111607079936105322581866 (0xB36708627CD73896A245104531F70F6A)
Полное имя : D:\The.bad.seed.2018.P.HDTV.72Op_KOSHARA.mkv
Формат : Matroska
Версия формата : Version 2
Размер файла : 2,91 Гбайт
Продолжительность : 1 ч. 26 м.
Режим общего битрейта : Переменный
Общий поток : 4810 Кбит/сек
Дата кодирования : UTC 2018-09-22 11:18:34
Программа кодирования : mkvmerge v8.3.0 ('Over the Horizon') 64bit
Библиотека кодирования : libebml v1.3.1 + libmatroska v1.4.2

Видео
Идентификатор : 1
Формат : AVC
Формат/Информация : Advanced Video Codec
Профиль формата : High@L4.1
Параметр CABAC формата : Да
Параметр RefFrames формата : 4 кадра
Идентификатор кодека : V_MPEG4/ISO/AVC
Продолжительность : 1 ч. 26 м.
Вид битрейта : Переменный
Битрейт : 4424 Кбит/сек
Максимальный битрейт : 5000 Кбит/сек
Ширина : 1280 пикселей
Высота : 638 пикселей
Соотношение сторон : 2,006
Режим частоты кадров : Постоянный
Частота кадров : 23,976 (24000/1001) кадра/сек
Стандарт вещания : Component
Цветовое пространство : YUV
Субдискретизация насыщенности : 4:2:0
Битовая глубина : 8 бит
Тип развёртки : Прогрессивная
Бит/(Пиксели*Кадры) : 0.221
Размер потока : 2,62 Гбайт (90%)
Default : Да
Forced : Нет
Цветовой диапазон : Limited
Основные цвета : BT.709
Характеристики трансфера : BT.709
Коэффициенты матрицы : BT.709

Аудио
Идентификатор : 2
Формат : AC-3
Формат/Информация : Audio Coding 3
Расширение режима : CM (complete main)
Параметр Endianness формата : Big
Идентификатор кодека : A_AC3
Продолжительность : 1 ч. 26 м.
Вид битрейта : Постоянный
Битрейт : 384 Кбит/сек
Каналы : 2 канала
Расположение каналов : Front: L R
Частота : 48,0 КГц
Частота кадров : 31,250 кадров/сек (1536 spf)
Метод сжатия : С потерями
Размер потока : 238 Мбайт (8%)
Default : Да
Forced : Нет

pb.wtf



Скачать Дурная кровь через торрент http://img11.lostpic.net/2018/09/24/7997af26a73765f6d5ca08f275054b58.jpg Скачать фильм Дурная кровь через торрент бесплантно в хорошем качестве Описание: Родитель-одиночка и няня подозревают, что их, казалось бы, идеальная дочь — бессердечный ... 7.5 10 4
Торрент: Зарегистрирован [2018-09-24 02:01] · скачан: 69 раз
Статус: T временная
Размер: 2.91 GB
Как cкачать? Как скачать Дурная кровь через торрент | qTorrent

% Раздел Тема Автор DL S | L
T Фильмы (мультфильмы) cо спонсором показа (Новинки AVI/MKV) [ 1.37 GB ] Дурная кровь / The Bad Seed [2018 HDTVRip] MVO ["Синема УС"] bober100 Скачать
2 | 0


Последний раз редактировалось: bober100 (2018-09-24 02:23), всего редактировалось 1 раз

28-11-2019 20:33  

Отключить всю рекламу на сайте

24-09-2018 08:24 Дурная кровь Скачать торрент  

Родитель Одиночка с няней подозревают что ИХ дочь убийца? Уже звучит как сюжет Санта-Барбары )pb.wtf



    Дорогой пользователь! Огромная просьба, поблагодарите релизера, оцените раздачу и оставьте свои комментарий, если Вы скачали Дурная кровь через торрент бесплатно! Внесите свою лепту в развитие PiratBit!
    Комментировать посты могут только пользователи прошедшие не сложную регистрацию
    Показать сообщения:    

    Дурная кровь через торрент
    Скачать бесплатно Дурная кровь
    Дурная кровь скачать торрент
    Дурная кровь смотреть онлайн
    Cкачать фильм Дурная кровь бесплатно
    Дурная кровь скачать торрент в хорошем качестве
    Дурная кровь смотреть онлайн бесплатно в хорошем качестве


    Вы не можете начинать темы
    Вы не можете отвечать на сообщения
    Вы не можете редактировать свои сообщения
    Вы не можете удалять свои сообщения
    Вы не можете голосовать в опросах
    Вы не можете прикреплять файлы к сообщениям
    Вы можете скачивать файлы