Всегда рабочее зеркало без VPN и Proxy просто перед .vidak.icu напиши любое слово или цифру, Пример http://mpxo.vidak.icu

Лицензия

MVO

1 сезон

1

1 сезон

iTunes

1 сезон

13

1 сезон

Deluxe

pack

Рекомендуем

Repack

30

ВАЖНО

RePack

MK11

RePack

jed

RePack

fifa19

RePack

RDR2

RePack

NEED FOR SPEED™ PAYBACK

Кинопоиск HD

6 сезон

 Острые козырьки 6 сезон

Все сериалы

все сериалы на PB.wtf

RePack

FAR CRY 5
  
Magnet ссылка

Люди Икс: Последняя битва / X-Men: The Last Stand (Бретт Рэтнер) [2006, фантастика, боевик, триллер, UHD BDRip 2160p] DUB (rus, ukr) + MVO + DVO + 2xAVO pb.wtf

Люди Икс: Последняя битва через торрент pb.wtf

Размер: 28.83 GB | Добавлен: 3 года 10 мес. назад | Торрент скачан:12 раз
Смотреть онлайн Люди Икс: Последняя битва | Скачать    Ребята, помогите собрать деньги на оплату серверов!!!

24-09-2018 02:48 Люди Икс: Последняя битва Скачать торрент  

Люди Икс: Последняя битва / X-Men: The Last Stand«На чьей стороне будешь ты?»
Год выпуска: 2006
Страна: Канада, США, Великобритания
Жанр: фантастика, боевик, триллер, приключения
Продолжительность: 01:44:05
Перевод: Дублированный, профессиональный многоголосый, профессиональный двухголосый, авторский
Субтитры: Русские (Full, Forced) английские (SDH, Full), украинские (Full, Forced)
Режиссер: Бретт Рэтнер
В ролях:

Хью Джекман (Logan / Wolverine), Холли Берри (Ororo Munroe / Storm), Иэн МакКеллен (Erik Lehnsherr / Magneto), Фамке Янссен (Jean Grey / Phoenix), Келси Грэммер (Dr. Henry «Hank» McCoy / Beast), Шон Эшмор (Bobby Drake / Iceman), Аарон Стэнфорд (John Allerdyce / Pyro), Патрик Стюарт (Charles Xavier / Professor X), Бен Фостер (Warren Worthington III / Angel), Эллен Пейдж (Kitty Pryde / Shadowcat), Анна Пэкуин (Marie / Rogue), Джеймс Марсден (Scott Summers / Cyclops)
Описание:
Людям Икс во главе с профессором Чарльзом Ксавьером приходится вступить в битву с самой эволюцией в лице их воскресшего товарища по команде. Джин Грэй, возрождённая в облике Тёмного Феникса, представляет опасность не только для самой себя, но и для мутантов и для всей человеческой расы.
Рейтинг:

MPAA: PG-13 - Детям до 13 лет просмотр не желателен
Качество: UHD BDRip 2160p
Формат: MKV
Видео: HEVC, HDR, 35.2 Mбит/с, 3840x1600, 23.976 кадр/с
Аудио #1: RUS / DTS / 5.1 / 48 kHz / 768 kbps - CPIG
Аудио #2: RUS/ AC3 / 5.1 / 48 kHz / 640 kbps - MVO
Аудио #3: RUS / AC3 / 5.1 / 48 kHz / 640 kbps - Гланц и Артёмова
Аудио #4: RUS/ AC3 / 5.1 / 48 kHz / 448 kbps - Гаврилов
Аудио #5: RUS / AC3 / 5.1 / 48 kHz / 640 kbps - Рябов
Аудио #6: UKR / AC3 / 2.0 / 48 kHz / 192 kbps - Дубляж
Аудио #7: UKR / AC3 / 5.1 / 48 kHz / 448 kbps - MVO
Аудио #8: ENG / AC3 / 5.1 / 48 kHz / 640 kbps - Оригинал
Навигация по главам: есть
Complete name : D:\Movies\test\X-Men.The.Last.Stand.2006.INTERNAL.2160p.UHD.BluRay.X265-SpaceHD13.mkv
Format : Matroska
Format version : Version 4 / Version 2
File size : 28.8 GiB
Duration : 1 h 44 min
Overall bit rate : 39.7 Mb/s
Movie name : X-Men.The.Last.Stand.2006.INTERNAL.2160p.UHD.BluRay.X265-SpaceHD13
Encoded date : UTC 2018-09-23 16:28:54
Writing application : mkvmerge v25.0.0 ('Prog Noir') 64-bit
Writing library : libebml v1.3.6 + libmatroska v1.4.9
Cover : Yes
Attachments : cover.jpg

Video
ID : 1
Format : HEVC
Format/Info : High Efficiency Video Coding
Commercial name : HDR10
Format profile : Main [email protected]@High
Codec ID : V_MPEGH/ISO/HEVC
Duration : 1 h 44 min
Bit rate : 35.2 Mb/s
Width : 3 840 pixels
Height : 1 600 pixels
Display aspect ratio : 2.40:1
Frame rate mode : Constant
Frame rate : 23.976 (24000/1001) FPS
Color space : YUV
Chroma subsampling : 4:2:0 (Type 2)
Bit depth : 10 bits
Bits/(Pixel*Frame) : 0.239
Stream size : 25.6 GiB (89%)
Title : X-Men.The.Last.Stand.2006.INTERNAL.2160p.UHD.BluRay.X265-SpaceHD13
Writing library : x265 2.8+10-703eade86b53:[Windows][GCC 8.1.0][64 bit] 10bit
Encoding settings : cpuid=1111039 / frame-threads=4 / numa-pools=16 / wpp / no-pmode / no-pme / no-psnr / no-ssim / log-level=2 / input-csp=1 / input-res=3840x1600 / interlace=0 / total-frames=149774 / level-idc=51 / high-tier=1 / uhd-bd=0 / ref=4 / no-allow-non-conformance / repeat-headers / annexb / aud / hrd / info / hash=0 / no-temporal-layers / no-open-gop / min-keyint=24 / keyint=240 / gop-lookahead=0 / bframes=4 / b-adapt=2 / b-pyramid / bframe-bias=0 / rc-lookahead=25 / lookahead-slices=4 / scenecut=40 / radl=0 / no-intra-refresh / ctu=64 / min-cu-size=8 / rect / no-amp / max-tu-size=32 / tu-inter-depth=1 / tu-intra-depth=1 / limit-tu=0 / rdoq-level=2 / dynamic-rd=0.00 / no-ssim-rd / signhide / no-tskip / nr-intra=0 / nr-inter=0 / no-constrained-intra / no-strong-intra-smoothing / max-merge=3 / limit-refs=3 / limit-modes / me=3 / subme=3 / merange=57 / temporal-mvp / weightp / no-weightb / no-analyze-src-pics / deblock=-3:-3 / no-sao / no-sao-non-deblock / rd=4 / no-early-skip / rskip / no-fast-intra / no-tskip-fast / no-cu-lossless / no-b-intra / no-splitrd-skip / rdpenalty=0 / psy-rd=2.00 / psy-rdoq=1.00 / no-rd-refine / no-lossless / cbqpoffs=0 / crqpoffs=0 / rc=crf / crf=17.0 / qcomp=0.60 / qpstep=4 / stats-write=0 / stats-read=0 / vbv-maxrate=160000 / vbv-bufsize=160000 / vbv-init=0.9 / crf-max=0.0 / crf-min=0.0 / ipratio=1.40 / pbratio=1.30 / aq-mode=1 / aq-strength=1.00 / cutree / zone-count=0 / no-strict-cbr / qg-size=32 / no-rc-grain / qpmax=69 / qpmin=0 / no-const-vbv / sar=1 / overscan=0 / videoformat=5 / range=0 / colorprim=9 / transfer=16 / colormatrix=9 / chromaloc=1 / chromaloc-top=2 / chromaloc-bottom=2 / display-window=0 / master-display=G(13250,34500)B(7500,3000)R(34000,16000)WP(15635,16450)L(10000000,50) / max-cll=0,0 / min-luma=0 / max-luma=1023 / log2-max-poc-lsb=8 / vui-timing-info / vui-hrd-info / slices=1 / no-opt-qp-pps / no-opt-ref-list-length-pps / no-multi-pass-opt-rps / scenecut-bias=0.05 / no-opt-cu-delta-qp / no-aq-motion / hdr / hdr-opt / no-dhdr10-opt / no-idr-recovery-sei / analysis-reuse-level=5 / scale-factor=0 / refine-intra=0 / refine-inter=0 / refine-mv=0 / no-limit-sao / ctu-info=0 / no-lowpass-dct / refine-mv-type=0 / copy-pic=1 / max-ausize-factor=1.0 / no-dynamic-refine / no-single-sei
Default : Yes
Forced : No
Color range : Limited
Color primaries : BT.2020
Transfer characteristics : PQ
Matrix coefficients : BT.2020 non-constant
Mastering display color pri : Display P3
Mastering display luminance : min: 0.0050 cd/m2, max: 1000 cd/m2

Audio #1
ID : 2
Format : DTS
Format/Info : Digital Theater Systems
Codec ID : A_DTS
Duration : 1 h 44 min
Bit rate mode : Constant
Bit rate : 768 kb/s
Channel(s) : 6 channels
Channel layout : C L R Ls Rs LFE
Sampling rate : 48.0 kHz
Frame rate : 93.750 FPS (512 SPF)
Bit depth : 24 bits
Compression mode : Lossy
Stream size : 572 MiB (2%)
Title : X-Men.The.Last.Stand.2006.INTERNAL.2160p.UHD.BluRay.X265-SpaceHD13[дублированный, CPIG]
Language : Russian
Default : Yes
Forced : No

Audio #2
ID : 3
Format : AC-3
Format/Info : Audio Coding 3
Commercial name : Dolby Digital
Codec ID : A_AC3
Duration : 1 h 44 min
Bit rate mode : Constant
Bit rate : 640 kb/s
Channel(s) : 6 channels
Channel layout : L R C LFE Ls Rs
Sampling rate : 48.0 kHz
Frame rate : 31.250 FPS (1536 SPF)
Bit depth : 16 bits
Compression mode : Lossy
Stream size : 476 MiB (2%)
Title : X-Men.The.Last.Stand.2006.INTERNAL.2160p.UHD.BluRay.X265-SpaceHD13[Многоголосый закадровый]
Language : Russian
Service kind : Complete Main
Default : No
Forced : No

Audio #3
ID : 4
Format : AC-3
Format/Info : Audio Coding 3
Commercial name : Dolby Digital
Codec ID : A_AC3
Duration : 1 h 44 min
Bit rate mode : Constant
Bit rate : 640 kb/s
Channel(s) : 6 channels
Channel layout : L R C LFE Ls Rs
Sampling rate : 48.0 kHz
Frame rate : 31.250 FPS (1536 SPF)
Bit depth : 16 bits
Compression mode : Lossy
Stream size : 476 MiB (2%)
Title : X-Men.The.Last.Stand.2006.INTERNAL.2160p.UHD.BluRay.X265-SpaceHD13[П.Гланц и Ю.Артёмова]
Language : Russian
Service kind : Complete Main
Default : No
Forced : No

Audio #4
ID : 5
Format : AC-3
Format/Info : Audio Coding 3
Commercial name : Dolby Digital
Codec ID : A_AC3
Duration : 1 h 44 min
Bit rate mode : Constant
Bit rate : 448 kb/s
Channel(s) : 6 channels
Channel layout : L R C LFE Ls Rs
Sampling rate : 48.0 kHz
Frame rate : 31.250 FPS (1536 SPF)
Bit depth : 16 bits
Compression mode : Lossy
Stream size : 334 MiB (1%)
Title : X-Men.The.Last.Stand.2006.INTERNAL.2160p.UHD.BluRay.X265-SpaceHD13[А.Гаврилов]
Language : Russian
Service kind : Complete Main
Default : No
Forced : No

Audio #5
ID : 6
Format : AC-3
Format/Info : Audio Coding 3
Commercial name : Dolby Digital
Codec ID : A_AC3
Duration : 1 h 44 min
Bit rate mode : Constant
Bit rate : 640 kb/s
Channel(s) : 6 channels
Channel layout : L R C LFE Ls Rs
Sampling rate : 48.0 kHz
Frame rate : 31.250 FPS (1536 SPF)
Bit depth : 16 bits
Compression mode : Lossy
Stream size : 476 MiB (2%)
Title : X-Men.The.Last.Stand.2006.INTERNAL.2160p.UHD.BluRay.X265-SpaceHD13[С.Рябов]
Language : Russian
Service kind : Complete Main
Default : No
Forced : No

Audio #6
ID : 7
Format : AC-3
Format/Info : Audio Coding 3
Commercial name : Dolby Digital
Codec ID : A_AC3
Duration : 1 h 44 min
Bit rate mode : Constant
Bit rate : 192 kb/s
Channel(s) : 2 channels
Channel layout : L R
Sampling rate : 48.0 kHz
Frame rate : 31.250 FPS (1536 SPF)
Bit depth : 16 bits
Compression mode : Lossy
Stream size : 143 MiB (0%)
Title : X-Men.The.Last.Stand.2006.INTERNAL.2160p.UHD.BluRay.X265-SpaceHD13[Профессиональный дублированный, 1+1]
Language : Ukrainian
Service kind : Complete Main
Default : No
Forced : No

Audio #7
ID : 8
Format : AC-3
Format/Info : Audio Coding 3
Commercial name : Dolby Digital
Codec ID : A_AC3
Duration : 1 h 44 min
Bit rate mode : Constant
Bit rate : 448 kb/s
Channel(s) : 6 channels
Channel layout : L R C LFE Ls Rs
Sampling rate : 48.0 kHz
Frame rate : 31.250 FPS (1536 SPF)
Bit depth : 16 bits
Compression mode : Lossy
Stream size : 334 MiB (1%)
Title : X-Men.The.Last.Stand.2006.INTERNAL.2160p.UHD.BluRay.X265-SpaceHD13[Многоголосый закадровый, Омикрон]
Language : Ukrainian
Service kind : Complete Main
Default : No
Forced : No

Audio #8
ID : 9
Format : AC-3
Format/Info : Audio Coding 3
Commercial name : Dolby Digital
Codec ID : A_AC3
Duration : 1 h 44 min
Bit rate mode : Constant
Bit rate : 640 kb/s
Channel(s) : 6 channels
Channel layout : L R C LFE Ls Rs
Sampling rate : 48.0 kHz
Frame rate : 31.250 FPS (1536 SPF)
Bit depth : 16 bits
Compression mode : Lossy
Stream size : 476 MiB (2%)
Title : X-Men.The.Last.Stand.2006.INTERNAL.2160p.UHD.BluRay.X265-SpaceHD13[Оригинал]
Language : English
Service kind : Complete Main
Default : No
Forced : No

Text #1
ID : 10
Format : PGS
Muxing mode : zlib
Codec ID : S_HDMV/PGS
Codec ID/Info : Picture based subtitle format used on BDs/HD-DVDs
Duration : 1 h 33 min
Bit rate : 494 b/s
Count of elements : 24
Stream size : 340 KiB (0%)
Title : Forced
Language : Russian
Default : Yes
Forced : No

Text #2
ID : 11
Format : PGS
Muxing mode : zlib
Codec ID : S_HDMV/PGS
Codec ID/Info : Picture based subtitle format used on BDs/HD-DVDs
Duration : 1 h 43 min
Bit rate : 31.7 kb/s
Count of elements : 1348
Stream size : 23.4 MiB (0%)
Title : Full
Language : Russian
Default : No
Forced : No

Text #3
ID : 12
Format : PGS
Muxing mode : zlib
Codec ID : S_HDMV/PGS
Codec ID/Info : Picture based subtitle format used on BDs/HD-DVDs
Duration : 1 h 33 min
Bit rate : 509 b/s
Count of elements : 24
Stream size : 351 KiB (0%)
Title : Forced
Language : Ukrainian
Default : No
Forced : No

Text #4
ID : 13
Format : PGS
Muxing mode : zlib
Codec ID : S_HDMV/PGS
Codec ID/Info : Picture based subtitle format used on BDs/HD-DVDs
Duration : 1 h 42 min
Bit rate : 37.0 kb/s
Count of elements : 1746
Stream size : 27.2 MiB (0%)
Title : Full
Language : Ukrainian
Default : No
Forced : No

Text #5
ID : 14
Format : PGS
Muxing mode : zlib
Codec ID : S_HDMV/PGS
Codec ID/Info : Picture based subtitle format used on BDs/HD-DVDs
Duration : 1 h 42 min
Bit rate : 33.7 kb/s
Count of elements : 1510
Stream size : 24.8 MiB (0%)
Title : Full
Language : English
Default : No
Forced : No

Text #6
ID : 15
Format : PGS
Muxing mode : zlib
Codec ID : S_HDMV/PGS
Codec ID/Info : Picture based subtitle format used on BDs/HD-DVDs
Duration : 1 h 43 min
Bit rate : 37.0 kb/s
Count of elements : 1746
Stream size : 27.3 MiB (0%)
Title : SDH
Language : English
Default : No
Forced : No

Menu
00:00:00.000 : :Глава 01
00:05:17.192 : :Глава 02
00:09:21.311 : :Глава 03
00:12:19.403 : :Глава 04
00:17:53.070 : :Глава 05
00:23:09.136 : :Глава 06
00:30:57.896 : :Глава 07
00:33:57.492 : :Глава 08
00:38:02.362 : :Глава 09
00:43:48.166 : :Глава 10
00:50:36.742 : :Глава 11
00:55:37.083 : :Глава 12
00:58:02.853 : :Глава 13
01:01:13.878 : :Глава 14
01:03:56.750 : :Глава 15
01:08:16.801 : :Глава 16
01:10:40.569 : :Глава 17
01:13:21.314 : :Глава 18
01:19:11.537 : :Глава 19
01:22:10.091 : :Глава 20
01:25:03.849 : :Глава 21
01:29:41.751 : :Глава 22
01:34:25.702 : :Глава 23
01:36:02.590 : :Глава 24
pb.wtf



Скачать Люди Икс: Последняя битва через торрент https://a.radikal.ru/a08/1809/ad/6c6d4e21ccb8.png Скачать, смотреть онлайн Люди Икс: Последняя битва бесплантно в хорошем качестве Описание: Людям Икс во главе с профессором Чарльзом Ксавьером приходится вступить в битву с самой эволюцией в лице их воскресшего товарища ... 10 10 1
Торрент: Зарегистрирован [2018-09-24 02:48] · скачан: 12 раз
Статус: √ проверено
Размер: 28.83 GB
Как cкачать? Как скачать Люди Икс: Последняя битва через торрент | UTorrent

% Раздел Тема Автор DL S | L
Ultra HD (UHD: 2K, 4K, 8K) — видео сверхвысокой чёткости [ 56.42 GB ] Люди Икс: Последняя битва / X-Men: The Last Stand [2006 UHD BDRemux 2160p] DUB + MVO + DVO + 2xAVO sheker187 Скачать
1 | 0

28-11-2019 20:33  

Отключить вcю реклaмy на сайте

    Дорогой пользователь! Огромная просьба, поблагодарите релизера, оцените раздачу и оставьте свои комментарий, если Вы скачали Люди Икс: Последняя битва через торрент бесплатно!
    Комментировать посты могут только пользователи прошедшие не сложную регистрацию
    Показать сообщения:    

    Люди Икс: Последняя битва через торрент
    Скачать бесплатно Люди Икс: Последняя битва
    Люди Икс: Последняя битва скачать торрент
    Люди Икс: Последняя битва смотреть онлайн
    Cкачать фильм Люди Икс: Последняя битва бесплатно
    Люди Икс: Последняя битва скачать торрент в хорошем качестве
    Люди Икс: Последняя битва смотреть онлайн бесплатно в хорошем качестве


    Вы не можете начинать темы
    Вы не можете отвечать на сообщения
    Вы не можете редактировать свои сообщения
    Вы не можете удалять свои сообщения
    Вы не можете голосовать в опросах
    Вы не можете прикреплять файлы к сообщениям
    Вы можете скачивать файлы