Ссылка на приватное зеркало нашего сайта всего за 1$. Внимание количество ограничено!!!

2 сезон

iTunes

1 сезон

1

iTunes

iTunes

iTunes

1 сезон

RePack

30

ИГРА 18+

pack

ВАЖНО

!!Акция!!

Alien_RageХит недели

RePack

MK11
pack

Забери бонус

RePack

jed

!!Акция!!

Alien_Rage

RePack

fifa19

RePack

Assassins Creed: Odyssey

RePack

NEED FOR SPEED™ PAYBACK

4 сезон

9 сезон

Бесстыжие 9 сезон

Все сериалы

все сериалы на PB.wtf

RePack

FAR CRY 5
  

Канцелярская крыса / Серии: 1-16 из 16 (Иван Глубоков, Алан Дзоциев) [2018, Детектив, криминал, SATRip] pb.wtf

Канцелярская крыса через торрент pb.wtf

Размер: 10.63 GB | Добавлен: 2 года назад | Торрент скачан:68 раз
Скачать  

24-09-2018 13:03 Канцелярская крыса Скачать торрент  

Канцелярская крыса / Серия 1- 16 из 16Год выпуска: 2018
Страна: Россия
Жанр: Детектив, криминал
Продолжительность: 16 х 00:50:00
Субтитры: нет

Режиссер: Иван Глубоков, Алан Дзоциев

В ролях: Алексей Кравченко, Константин Стрельников, Ингрид Олеринская, Елена Полякова, Алексей Нилов, Вадим Сквирский, Роман Жилкин, Валерий Гришко, Андрей Павловец, Екатерина Рокотова, Сергей Кошонин, Андрей Полищук, Дмитрий Сутырин

Описание: сотрудника полицейского архива майора Андрея Вершинина переводят с повышением в приграничный город Портовый. Вершинину предстоит занять должность руководителя УВД вместо недавно погибшего полковника Авдеева. Нового начальника в Портовом встречают настороженно: подчинённые почти открыто с ним конфликтуют, а пресса и общественность, взволнованные недавней серией дерзких ограблений, просто возмущены этим назначением. Никто не верит, что бывшая «канцелярская крыса» способна что-то изменить в криминальной обстановке. Однако Вершинин с самого начала даёт понять, что не отступится даже в атмосфере всеобщего недоверия. Первым и самым верным его союзником неожиданно становится местная журналистка Анна Логинова, вначале сама серьёзно подмочившая репутацию Вершинина. Вместе они начинают поиск налётчиков, напавших на полицейских, перевозивших задержанных наркокурьеров, а также бандитов, устроивших перестрелку на юбилее местного адвоката Медушевского. Кроме того, Вершинна очень беспокоит подозрительная активность вокруг местного детского дома, воспитанников которого время от времени куда-то вывозят с неясными целями.

Качество: SATRip
Формат: AVI
Видео кодек: XviD
Аудио кодек: MP3
Видео: XviD, 1800 Кбит/с, 720x352
Аудио#1: МР3, 2 ch, 128 Кбит/с
скриншот   скриншот   скриншот   скриншот  

General
Complete name : H:\релизы.торрентфайл\Канцел.крыса(2018)\Kancelyarskaya.krysa.01.SATRip.[www.riperam.org].avi
Format : AVI
Format/Info : Audio Video Interleave
File size : 701 MiB
Duration : 50mn 29s
Overall bit rate : 1 942 Kbps

Video
ID : 0
Format : MPEG-4 Visual
Format profile : Advanced Simple@L5
Format settings, BVOP : 2
Format settings, QPel : No
Format settings, GMC : No warppoints
Format settings, Matrix : Default (H.263)
Codec ID : XVID
Codec ID/Hint : XviD
Duration : 50mn 29s
Bit rate : 1 800 Kbps
Width : 720 pixels
Height : 352 pixels
Display aspect ratio : 2.045
Frame rate : 25.000 fps
Color space : YUV
Chroma subsampling : 4:2:0
Bit depth : 8 bits
Scan type : Progressive
Compression mode : Lossy
Bits/(Pixel*Frame) : 0.284
Stream size : 650 MiB (93%)
Writing library : XviD 1.2.1 (UTC 2008-12-04)

Audio
ID : 1
Format : MPEG Audio
Format version : Version 1
Format profile : Layer 3
Mode : Joint stereo
Mode extension : MS Stereo
Codec ID : 55
Codec ID/Hint : MP3
Duration : 50mn 29s
Bit rate mode : Constant
Bit rate : 128 Kbps
Channel(s) : 2 channels
Sampling rate : 48.0 KHz
Compression mode : Lossy
Stream size : 46.2 MiB (7%)
Alignment : Aligned on interleaves
Interleave, duration : 24 ms (0.60 video frame)
Writing library : LAME3.99r
Encoding settings : -m j -V 4 -q 9 -lowpass 17 -b 128

Внимание! Раздача ведётся путём добавления новых серий; при каждом добавлении создётся новый торрент. Чтобы начать докачку новой серии, пользователям необходимо сделать следующее:
  • Остановить скачивание,
  • Удалить старый торрент у себя из клиента (старые серии удалять не надо),
  • Скачать новый торрент и запустить его у себя в клиенте вместо старого, при этом указать клиенту путь в старую папку куда и должно происходить скачивание новых серий.
Ваш клиент при этом должен произвести хеширование (проверку) старой папки (если не производит сам - помогите ему сделать это), и будет докачивать только те серии которых у вас ещё нет. Старые серии при этом не удаляются, а продолжают раздаваться!

Eсли вы уже удалили старые серии, то предотвратить повторную закачку старых серий можно, отжав галочку в соответсвующих местах при запуске нового торрента. По возможности, желательно не удалять старые серии как можно дольше чтобы релизёр не столько продолжал раздавать старые серии, а смог сконцентрироваться на новых.
pb.wtf



Скачать Канцелярская крыса через торрент http://pic1.kartinco.top/images/11/hq7xy.jpg Скачать фильм Канцелярская крыса через торрент бесплантно в хорошем качестве Описание: сотрудника полицейского архива майора Андрея Вершинина переводят с повышением в приграничный город Портовый. Вершинину предстоит ... 8.6 10 19
Info! Золотая раздача, скачанное не засчитывается.
Торрент: Зарегистрирован [2018-10-04 13:59] · скачан: 68 раз
Статус: √ проверено
Размер: 10.63 GB
Как cкачать? Как скачать Канцелярская крыса через торрент | qTorrent

% Раздел Тема Автор DL S | L
Наши сериалы [ 9.8 GB ] Канцелярская крыса / Серии: 1-16 из 16 [2018 SATRip-AVC] aleksan55 Скачать
1 | 0
Наши сериалы [ 8.7 GB ] Канцелярская крыса / Сезон: 1 / Серии: 1-16 из 16 [2018 WEBRip] bober100 Скачать
1 | 0
Наши сериалы [ 20.43 GB ] Канцелярская крыса / Сезон: 1 / Серии: 1-16 из 16 [2018 WEBRip 720p] bober100 Скачать
1 | 0
Наши сериалы [ 9.41 GB ] Канцелярская крыса / Сезон: 1 / Серии: 1-16 из 16 [2018 WEB-DLRip] bober100 Скачать
2 | 0
Наши сериалы [ 31.74 GB ] Канцелярская крыса Сезон: 1 / Серии: [2018 HDTV 1080p] [Русский] R.G.Generalfilm White Smoke Скачать
1 | 0
Наши сериалы [ 34.11 GB ] Канцелярская крыса / Сезон: 1 / Серии: 1-16 из 16 [2018 WEB-DL 1080p] bober100 Скачать
1 | 0


Последний раз редактировалось: oleg8 (2018-10-04 13:59), всего редактировалось 8 раз(а)

28-11-2019 20:33  

Отключить всю рекламу на сайте

02-10-2018 17:13 Канцелярская крыса Скачать торрент  

оперативность уровень бог... pb.wtf



    Дорогой пользователь! Огромная просьба, поблагодарите релизера, оцените раздачу и оставьте свои комментарий, если Вы скачали Канцелярская крыса через торрент бесплатно! Внесите свою лепту в развитие PiratBit!
    Комментировать посты могут только пользователи прошедшие не сложную регистрацию
    Показать сообщения:    

    Канцелярская крыса через торрент
    Скачать бесплатно Канцелярская крыса
    Канцелярская крыса скачать торрент
    Канцелярская крыса смотреть онлайн
    Cкачать фильм Канцелярская крыса бесплатно
    Канцелярская крыса скачать торрент в хорошем качестве
    Канцелярская крыса смотреть онлайн бесплатно в хорошем качестве


    Вы не можете начинать темы
    Вы не можете отвечать на сообщения
    Вы не можете редактировать свои сообщения
    Вы не можете удалять свои сообщения
    Вы не можете голосовать в опросах
    Вы не можете прикреплять файлы к сообщениям
    Вы можете скачивать файлы