Ссылка на приватное зеркало всего за 1$. Внимание количество ограничено!!!

OK

1+1

iTunes

мы

OK

1

WEB-DLRip

Джокер

Пифагор

Ведьмак / The Witcher сериал

iTunes

ПШазам

ОК

Оно 2

iTunes

30
pack

Вам бонус

ВАЖНО

!!Акция!!

Alien_RageХит недели

RePack

Resident Evil 21

ИГРА 18+

pack

RePack

jed

RePack

fifa19

RePack

Assassins Creed: Odyssey

RePack

NEED FOR SPEED™ PAYBACK

4 сезон

9 сезон

Бесстыжие 9 сезон

Все сериалы

все сериалы на PB.wtf

RePack

FAR CRY 5
  

Прячься на свету / Hide in the Light (Мики МакГрегор) [2018 г., Ужасы, триллер, WEB-DLRip, Любительский (многоголосый)(Синема УС)] pb.wtf

Прячься на свету через торрент pb.wtf

Размер: 1.29 GB | Добавлен: 1 год 4 мес. назад | Торрент скачан:165 раз
Скачать  

24-09-2018 17:40 Прячься на свету Скачать торрент  

Прячься на свету / Hide in the Light
Год выпуска: 2018
Страна: США
Жанр: Ужасы, триллер
Продолжительность: 01:19:59
Перевод: Любительский (многоголосый)(Синема УС)
Субтитры: Отсутствуют

Режиссер: Мики МакГрегор

rating

В ролях: Эрик Робертс, Джесси Джеймс, Мерси Мэлик, Дэвид Кэй, Клэйтон Снайдер, Чандлер Мэсси, Алексис Бузер Стерлинг, Линдсэй Ламб, Стерлинг Джонс, Барбара Кигэн

Описание: Смелая группа охотников за призраками выбирает для своего следующего расследования жуткий заброшенный приют с ужасной репутацией. То, что начиналось как веселое приключение, скоро станет борьбой за выживание, когда призрак молодой девушки потребует, чтобы они присоединились к ней в смертельной игре в прятки.

Доп. информация: Присутствуют вставки голосовой и текстовой рекламы

Качество: WEB-DLRip
Формат: AVI
Видео кодек: XviD
Аудио кодек: AC3
Видео: Xvid, 720x320, ~1916 Kbps
Аудио#1: AC3, 2 ch, 384 Kbps
скриншот   скриншот   скриншот   скриншот  

Общее
Полное имя : D:\CD\Прячься на свету (Ужасы-Триллер) (2018) WEB-DLRip-MVO\Прячься на свету (Ужасы-Триллер) (2018) WEB-DLRip-MVO.avi
Формат : AVI
Формат/Информация : Audio Video Interleave
Размер файла : 1,29 Гбайт
Продолжительность : 1 ч. 19 м.
Общий поток : 2310 Кбит/сек
Программа кодирования : VirtualDubMod 1.5.10.2 (build 2540/release)
Библиотека кодирования : VirtualDub build 35576/release

Видео
Идентификатор : 0
Формат : MPEG-4 Visual
Профиль формата : Advanced Simple@L5
Настройки формата : BVOP2 / Custom Matrix
Параметр BVOP формата : 2
Параметр QPel формата : Нет
Параметр GMC формата : Без точки перехода
Параметр матрицы формата : Выборочная
Идентификатор кодека : XVID
Идентификатор кодека/Подсказка : XviD
Продолжительность : 1 ч. 19 м.
Битрейт : 1916 Кбит/сек
Ширина : 720 пикселей
Высота : 320 пикселей
Соотношение сторон : 2,25:1
Частота кадров : 23,976 (24000/1001) кадра/сек
Цветовое пространство : YUV
Субдискретизация насыщенности : 4:2:0
Битовая глубина : 8 бит
Тип развёртки : Прогрессивная
Метод сжатия : С потерями
Бит/(Пиксели*Кадры) : 0.347
Размер потока : 1,07 Гбайт (83%)
Библиотека кодирования : XviD 1.2.1 (UTC 2008-12-04)

Аудио
Идентификатор : 1
Формат : AC-3
Формат/Информация : Audio Coding 3
Коммерческое название : Dolby Digital
Идентификатор кодека : 2000
Продолжительность : 1 ч. 19 м.
Вид битрейта : Постоянный
Битрейт : 384 Кбит/сек
Каналы : 2 канала
Channel layout : L R
Частота : 48,0 КГц
Частота кадров : 31,250 кадров/сек (1536 SPF)
Битовая глубина : 16 бит
Метод сжатия : С потерями
Размер потока : 220 Мбайт (17%)
Выравнивание : Разделение по промежуткам
Продолжительность промежутка : 42 мс. (1,00 видеокадр)
Время предзагрузки промежутка : 500 мс.
ServiceKind/String : Complete Main

pb.wtf



Скачать Прячься на свету через торрент http://pic1.kartinco.top/images/11/4tvv6.jpg Скачать фильм Прячься на свету через торрент бесплантно в хорошем качестве Описание: Смелая группа охотников за призраками выбирает для своего следующего расследования жуткий заброшенный приют с ужасной репутацией. ... 10 10 3
Торрент: Зарегистрирован [2018-09-24 17:40] · скачан: 165 раз
Статус: T временная
Размер: 1.29 GB
Как cкачать? Как скачать Прячься на свету через торрент | qTorrent

28-11-2019 20:33  

Отключить всю рекламу на сайте

    Дорогой пользователь! Огромная просьба, поблагодарите релизера, оцените раздачу и оставьте свои комментарий, если Вы скачали Прячься на свету через торрент бесплатно! Внесите свою лепту в развитие PiratBit!
    Комментировать посты могут только пользователи прошедшие не сложную регистрацию
    Показать сообщения:    

    Прячься на свету через торрент
    Скачать бесплатно Прячься на свету
    Прячься на свету скачать торрент
    Прячься на свету смотреть онлайн
    Cкачать фильм Прячься на свету бесплатно
    Прячься на свету скачать торрент в хорошем качестве
    Прячься на свету смотреть онлайн бесплатно в хорошем качестве


    Вы не можете начинать темы
    Вы не можете отвечать на сообщения
    Вы не можете редактировать свои сообщения
    Вы не можете удалять свои сообщения
    Вы не можете голосовать в опросах
    Вы не можете прикреплять файлы к сообщениям
    Вы можете скачивать файлы