новый адрес
Ссылка на приватное зеркало всего за 1$. Внимание количество ограничено!!!

iTunes

1+1

iTunes

мы

WEB-DL

1

iTunes

Чернобыль

iTunes

Ральф против интернета

Лицензия

ПШазам

Лицензия

Оно 2

Лицензия

30
pack

Вам бонус

ВАЖНО

!!Акция!!

Alien_RageХит недели

RePack

Resident Evil 21

ИГРА 18+

pack

RePack

jed

!!Акция!!

Alien_Rage

RePack

fifa19

RePack

Assassins Creed: Odyssey

RePack

NEED FOR SPEED™ PAYBACK

3 сезон

9 сезон

Бесстыжие 9 сезон

Все сериалы

все сериалы на PB.wtf

RePack

FAR CRY 5
Ребята, катастрофически не хватает 1900р. для оплаты серверов за Октябрь (всвязи с блокировками трафик упал в 3 раза), 1-2р., выручайте.
  

Убийца 2. Против всех / Sicario 2: Soldado (Стефано Соллима) [2018, боевик, триллер, драма, криминал, HDRip-AVC] MVO [HDRezka Studio] - ExKinoRay pb.wtf

Убийца 2. Против всех через торрент pb.wtf

Раздают: 3 [ 0 KB/s ]
Размер: 2.08 GB | Добавлен: 1 год 2 мес. назад | Торрент скачан:1472 раза
Скачать  

25-09-2018 02:59 Убийца 2. Против всех Скачать торрент  

Информация о фильме
Название: Убийца 2. Против всех
Оригинальное название: Sicario: Day of the Soldado
Год выхода: 2018
Жанр: Боевик, триллер, драма, криминал
Режиссер: Стефано Соллима
В ролях: Бенисио Дель Торо, Джош Бролин, Изабела Монер, Джеффри Донован, Кэтрин Кинер, Мануэль Рульфо, Мэттью Модайн, Шей Уигэм, Элиас Гарза, Ховард Фергюсон мл.

Описание:
Обстановка на американо-мексиканской границе накаляется, когда наркокартели начинают переправлять в США террористов. Чтобы дать им отпор федеральный агент Мэтт Грейвер вынужден вновь объединиться с не самым надежным напарником — Алехандро.

rating

Страна: США, Италия
Студия: Black Label Media,Rai Cinema,Thunder Road Pictures
Продолжительность: 02:02:24
Перевод: Профессиональный многоголосый | HDRezka Studio
Субтитры: Английские

БЕЗ КАКОЙ-ЛИБО РЕКЛАМЫ!

Формат: MKV
Качество: HDRip-AVC
Видео: MPEG-4 AVC, 1024x426 (2.40:1), 23.976 fps, 1785 Kbps, 0.171 bit/pixel
Аудио 1: 48 kHz, AC3, 2.1 ch, ~192 kbps avg, CBR, 48,0 КГц - Rus
Аудио 2: 48 kHz, AC3, 5.1 ch, ~448 kbps avg, CBR, 48,0 КГц - ENG
General
Unique ID : 221226107879947729213778252763088197141 (0xA66E993B87F95861B2D7496CE82A9615)
Complete name : D:\Sicario.Day.of.the.Soldado.2018.MVO.HDRip.AVC.ExKinoRay.mkv
Format : Matroska
Format version : Version 2
File size : 2.08 GiB
Duration : 2 h 2 min
Overall bit rate : 2 427 kb/s
Movie name : Sicario Day of the Soldado 2018 from ExKinoRay
Encoded date : UTC 2018-09-25 01:51:30
Writing application : mkvmerge v5.6.0 ('Kenya Kane') built on May 27 2012 16:44:04
Writing library : libebml v1.2.3 + libmatroska v1.3.0

Video
ID : 1
Format : AVC
Format/Info : Advanced Video Codec
Format profile : High@L4.1
Format settings, CABAC : Yes
Format settings, ReFrames : 12 frames
Codec ID : V_MPEG4/ISO/AVC
Duration : 2 h 2 min
Bit rate : 1 785 kb/s
Width : 1 024 pixels
Height : 426 pixels
Display aspect ratio : 2.40:1
Frame rate mode : Constant
Frame rate : 23.976 (23976/1000) FPS
Color space : YUV
Chroma subsampling : 4:2:0
Bit depth : 8 bits
Scan type : Progressive
Bits/(Pixel*Frame) : 0.171
Stream size : 1.49 GiB (72%)
Title : Enigma
Writing library : x264 core 152 r2851 ba24899
Encoding settings : cabac=1 / ref=12 / deblock=1:-2:-2 / analyse=0x3:0x113 / me=umh / subme=10 / psy=1 / psy_rd=1.05:0.10 / mixed_ref=1 / me_range=32 / chroma_me=1 / trellis=2 / 8x8dct=1 / cqm=0 / deadzone=21,11 / fast_pskip=0 / chroma_qp_offset=-3 / threads=12 / lookahead_threads=2 / sliced_threads=0 / nr=0 / decimate=0 / interlaced=0 / bluray_compat=0 / constrained_intra=0 / bframes=9 / b_pyramid=2 / b_adapt=2 / b_bias=0 / direct=3 / weightb=1 / open_gop=0 / weightp=2 / keyint=240 / keyint_min=23 / scenecut=40 / intra_refresh=0 / rc=2pass / mbtree=0 / bitrate=1785 / ratetol=1.0 / qcomp=0.60 / qpmin=0 / qpmax=51 / qpstep=4 / cplxblur=20.0 / qblur=0.5 / ip_ratio=1.40 / pb_ratio=1.30 / aq=1:1.00
Language : English
Default : Yes
Forced : No
Color range : Limited
Color primaries : BT.709
Transfer characteristics : BT.709
Matrix coefficients : BT.709

Audio #1
ID : 2
Format : AC-3
Format/Info : Audio Coding 3
Mode extension : CM (complete main)
Format settings, Endianness : Big
Codec ID : A_AC3
Duration : 2 h 2 min
Bit rate mode : Constant
Bit rate : 192 kb/s
Channel(s) : 2 channels
Channel positions : Front: L R
Sampling rate : 48.0 kHz
Frame rate : 31.250 FPS (1536 spf)
Compression mode : Lossy
Stream size : 168 MiB (8%)
Title : MVO (HDRezka)
Language : Russian
Default : Yes
Forced : No

Audio #2
ID : 3
Format : AC-3
Format/Info : Audio Coding 3
Mode extension : CM (complete main)
Format settings, Endianness : Big
Codec ID : A_AC3
Duration : 2 h 2 min
Bit rate mode : Constant
Bit rate : 448 kb/s
Channel(s) : 6 channels
Channel positions : Front: L C R, Side: L R, LFE
Sampling rate : 48.0 kHz
Frame rate : 31.250 FPS (1536 spf)
Compression mode : Lossy
Stream size : 392 MiB (18%)
Language : English
Default : No
Forced : No

Text #1
ID : 4
Format : UTF-8
Codec ID : S_TEXT/UTF8
Codec ID/Info : UTF-8 Plain Text
Title : Full
Language : English
Default : No
Forced : No

Text #2
ID : 5
Format : UTF-8
Codec ID : S_TEXT/UTF8
Codec ID/Info : UTF-8 Plain Text
Title : SDH
Language : English
Default : No
Forced : No

Menu
00:00:00.000 : en:00:00:00.000
00:06:38.189 : en:00:06:38.189
00:14:45.593 : en:00:14:45.593
00:18:48.502 : en:00:18:48.502
00:27:08.335 : en:00:27:08.335
00:34:08.964 : en:00:34:08.964
00:42:28.671 : en:00:42:28.671
00:51:10.442 : en:00:51:10.442
01:00:58.071 : en:01:00:58.071
01:09:20.114 : en:01:09:20.114
01:14:26.796 : en:01:14:26.796
01:23:24.958 : en:01:23:24.958
01:28:41.358 : en:01:28:41.358
01:35:38.900 : en:01:35:38.900
01:41:44.348 : en:01:41:44.348
01:46:15.494 : en:01:46:15.494
Релиз от:

Автор релиза: pb.wtf



Скачать Убийца 2. Против всех через торрент https://b.radikal.ru/b01/1809/18/c04111b5d4e6.png Скачать фильм Убийца 2. Против всех через торрент бесплантно в хорошем качестве Описание:Обстановка на американо-мексиканской границе накаляется, когда наркокартели начинают переправлять в США террористов. Чтобы дать им ... 9.8 10 25
Info! Золотая раздача, скачанное не засчитывается.
Торрент: Зарегистрирован [2018-09-25 02:59] · скачан: 1 472 раз
Статус: T временная
Размер: 2.08 GB
Как cкачать? Как скачать Убийца 2. Против всех через торрент | qTorrent

% Раздел Тема Автор DL S | L
T Фильмы с авторской озвучкой [ 1.46 GB ] Убийца 2. Против всех / Sicario 2: Soldado [2018 WEBRip] AVO [BadBajo] - ExKinoRay Enigma2010 Скачать
7 | 0
Фильмы с авторской озвучкой [ 2.29 GB ] Убийца 2. Против всех / Sicario 2: Soldado [2018 HDRip-AVC] AVO [Есарев] - ExKinoRay Enigma2010 Скачать
2 | 0

28-11-2019 20:33  

Отключить всю рекламу на сайте

27-09-2018 12:05 Убийца 2. Против всех Скачать торрент  

Бред полнейший. зря потраченное время на просмотр. Как боевик, вообще фигня кошмарная, драмы и триллера тоже нету. Откуда рейтинг такой высокий?!?(pb.wtf



28-09-2018 15:12 Убийца 2. Против всех Скачать торрент  

Не качайте. Ничего не понятно кто откуда и куда.pb.wtf



28-09-2018 17:13 Убийца 2. Против всех Скачать торрент  

Первый по интересней был.pb.wtf



30-09-2018 12:44 Убийца 2. Против всех Скачать торрент  

makaresko2,
Согласен.pb.wtf



    Дорогой пользователь! Огромная просьба, поблагодарите релизера, оцените раздачу и оставьте свои комментарий, если Вы скачали Убийца 2. Против всех через торрент бесплатно! Внесите свою лепту в развитие PiratBit!
    Комментировать посты могут только пользователи прошедшие не сложную регистрацию
    Показать сообщения:    

    Убийца 2. Против всех через торрент
    Скачать бесплатно Убийца 2. Против всех
    Убийца 2. Против всех скачать торрент
    Убийца 2. Против всех смотреть онлайн
    Cкачать фильм Убийца 2. Против всех бесплатно
    Убийца 2. Против всех скачать торрент в хорошем качестве
    Убийца 2. Против всех смотреть онлайн бесплатно в хорошем качестве


    Вы не можете начинать темы
    Вы не можете отвечать на сообщения
    Вы не можете редактировать свои сообщения
    Вы не можете удалять свои сообщения
    Вы не можете голосовать в опросах
    Вы не можете прикреплять файлы к сообщениям
    Вы можете скачивать файлы