Всегда рабочее зеркало без VPN и Proxy просто перед .vidak.icu напиши любое слово или цифру, Пример http://othg.vidak.icu

MVO

Лицензия

1 сезон

1

1 сезон

iTunes

1 сезон

13

1 сезон

Deluxe

pack

Рекомендуем

Repack

30

ВАЖНО

RePack

MK11

RePack

jed

RePack

fifa19

RePack

RDR2

RePack

NEED FOR SPEED™ PAYBACK

Кинопоиск HD

6 сезон

 Острые козырьки 6 сезон

Все сериалы

все сериалы на PB.wtf

RePack

FAR CRY 5
  
Magnet ссылка

Монстры на каникулах 3: Море зовёт / Hotel Transylvania 3: Summer Vacation (Генндий Тартаковский) [2018, мультфильм, фэнтези, комедия, BDRip-AVC] DUB (rus, ukr) [Лицензия] - ExKinoRay pb.wtf

Монстры на каникулах 3: Море зовёт через торрент pb.wtf

Раздают: 1 [ 0 KB/s ]
Размер: 2.19 GB | Добавлен: 3 года 7 мес. назад | Торрент скачан:906 раз
Смотреть онлайн Монстры на каникулах 3: Море зовёт | Скачать    Ребята, помогите собрать деньги на оплату серверов!!!

25-09-2018 04:04 Монстры на каникулах 3: Море зовёт Скачать торрент  

Информация о фильме
Название: Монстры на каникулах 3: Море зовёт
Оригинальное название: Hotel Transylvania 3: Summer Vacation
Год выпуска: 2018
Жанр: Мультфильм, фэнтези, комедия, семейный, полнометражный
Режиссер: Генндий Тартаковский
В ролях: Мэл Брукс, Адам Сэндлер, Селена Гомес, Энди Сэмберг, Кэтрин Хан, Фрэн Дрешер, Стив Бушеми, Дэвид Спейд, Тара Стронг, Кигэн-Майкл Ки

Описание:
На этот раз Дракула вместе со своими друзьями отправляется в круиз на шикарном лайнере. Развлечения там на любой вкус: от монстробаскетбола и экзотических экскурсий, до лунных ванн. Неожиданно Дракула влюбляется в капитана корабля — загадочную и прекрасную Эрику, и его дочка Мэвис понимает, что поездка может превратиться в кошмар: ведь Эрика хранит ужасный секрет, который ставит под угрозу существование всех монстров!

rating

Страна: США
Студия: Columbia Pictures, Media Rights Capital (MRC), Sony Pictures Animation
Продолжительность: 01:37:23
Перевод: Дублированный | Лицензия

Кодек: х264
Качество: BDRip-AVC
Видео: MPEG-4 AVC, 1024x552, 23,976 fps, ~ 1880 kbps
Аудио #01: 48 kHz, AC3, 5.1, 448 Kbps | Лицензия | RUS |
Аудио #02: 48 kHz, AC3, 5.1, 448 Kbps | Лицензия | UKR |
Аудио #03: 48 kHz, AC3, 5.1, 448 Kbps | Оригинал | ENG |
Субтитры: Русские (forced, full), украинские (full), английские (full, SDH)
General
Unique ID : 192479356775187820950500655603852551699 (0x90CE2CF9F3D89E899638B388B708A613)
Complete name : D:\Hotel.Transylvania.3.Summer.Vacation.2018.BDRip.AVC.ExKinoRay.mkv
Format : Matroska
Format version : Version 2
File size : 2.19 GiB
Duration : 1 h 37 min
Overall bit rate : 3 226 kb/s
Movie name : Hotel Transylvania 3 Summer Vacation 2018 from ExKinoRay
Encoded date : UTC 2018-11-10 12:30:13
Writing application : mkvmerge v5.6.0 ('Kenya Kane') built on May 27 2012 16:44:04
Writing library : libebml v1.2.3 + libmatroska v1.3.0

Video
ID : 1
Format : AVC
Format/Info : Advanced Video Codec
Format profile : [email protected]
Format settings, CABAC : Yes
Format settings, ReFrames : 12 frames
Codec ID : V_MPEG4/ISO/AVC
Duration : 1 h 37 min
Bit rate : 1 880 kb/s
Width : 1 024 pixels
Height : 552 pixels
Display aspect ratio : 1.85:1
Frame rate mode : Constant
Frame rate : 23.976 (23976/1000) FPS
Color space : YUV
Chroma subsampling : 4:2:0
Bit depth : 8 bits
Scan type : Progressive
Bits/(Pixel*Frame) : 0.139
Stream size : 1.24 GiB (56%)
Title : Enigma
Writing library : x264 core 152 r2851 ba24899
Encoding settings : cabac=1 / ref=12 / deblock=1:-2:-2 / analyse=0x3:0x113 / me=umh / subme=10 / psy=1 / psy_rd=1.05:0.10 / mixed_ref=1 / me_range=32 / chroma_me=1 / trellis=2 / 8x8dct=1 / cqm=0 / deadzone=21,11 / fast_pskip=0 / chroma_qp_offset=-3 / threads=12 / lookahead_threads=3 / sliced_threads=0 / nr=0 / decimate=0 / interlaced=0 / bluray_compat=0 / constrained_intra=0 / bframes=10 / b_pyramid=2 / b_adapt=2 / b_bias=0 / direct=3 / weightb=1 / open_gop=0 / weightp=2 / keyint=240 / keyint_min=23 / scenecut=40 / intra_refresh=0 / rc=2pass / mbtree=0 / bitrate=1880 / ratetol=1.0 / qcomp=0.60 / qpmin=0 / qpmax=51 / qpstep=4 / cplxblur=20.0 / qblur=0.5 / ip_ratio=1.30 / pb_ratio=1.20 / aq=1:1.00
Language : English
Default : Yes
Forced : No
Color range : Limited
Color primaries : BT.709
Transfer characteristics : BT.709
Matrix coefficients : BT.709

Audio #1
ID : 2
Format : AC-3
Format/Info : Audio Coding 3
Mode extension : CM (complete main)
Format settings, Endianness : Big
Codec ID : A_AC3
Duration : 1 h 37 min
Bit rate mode : Constant
Bit rate : 448 kb/s
Channel(s) : 6 channels
Channel positions : Front: L C R, Side: L R, LFE
Sampling rate : 48.0 kHz
Frame rate : 31.250 FPS (1536 spf)
Compression mode : Lossy
Stream size : 312 MiB (14%)
Title : Dub (Blu-Ray)
Language : Russian
Default : Yes
Forced : No

Audio #2
ID : 3
Format : AC-3
Format/Info : Audio Coding 3
Mode extension : CM (complete main)
Format settings, Endianness : Big
Codec ID : A_AC3
Duration : 1 h 37 min
Bit rate mode : Constant
Bit rate : 448 kb/s
Channel(s) : 6 channels
Channel positions : Front: L C R, Side: L R, LFE
Sampling rate : 48.0 kHz
Frame rate : 31.250 FPS (1536 spf)
Compression mode : Lossy
Stream size : 312 MiB (14%)
Title : Blu-Ray
Language : Ukrainian
Default : No
Forced : No

Audio #3
ID : 4
Format : AC-3
Format/Info : Audio Coding 3
Mode extension : CM (complete main)
Format settings, Endianness : Big
Codec ID : A_AC3
Duration : 1 h 37 min
Bit rate mode : Constant
Bit rate : 448 kb/s
Channel(s) : 6 channels
Channel positions : Front: L C R, Side: L R, LFE
Sampling rate : 48.0 kHz
Frame rate : 31.250 FPS (1536 spf)
Compression mode : Lossy
Stream size : 312 MiB (14%)
Language : English
Default : No
Forced : No

Text #1
ID : 5
Format : UTF-8
Codec ID : S_TEXT/UTF8
Codec ID/Info : UTF-8 Plain Text
Title : Forced
Language : Russian
Default : Yes
Forced : No

Text #2
ID : 6
Format : UTF-8
Codec ID : S_TEXT/UTF8
Codec ID/Info : UTF-8 Plain Text
Title : Full
Language : Russian
Default : No
Forced : No

Text #3
ID : 7
Format : UTF-8
Codec ID : S_TEXT/UTF8
Codec ID/Info : UTF-8 Plain Text
Title : Full
Language : Ukrainian
Default : No
Forced : No

Text #4
ID : 8
Format : UTF-8
Codec ID : S_TEXT/UTF8
Codec ID/Info : UTF-8 Plain Text
Title : Full
Language : English
Default : No
Forced : No

Menu
00:00:00.000 : en:00:00:00.000
00:04:28.935 : en:00:04:28.935
00:09:34.824 : en:00:09:34.824
00:16:02.044 : en:00:16:02.044
00:20:03.077 : en:00:20:03.077
00:24:34.932 : en:00:24:34.932
00:31:12.537 : en:00:31:12.537
00:36:49.207 : en:00:36:49.207
00:44:04.725 : en:00:44:04.725
00:49:57.703 : en:00:49:57.703
00:54:49.745 : en:00:54:49.745
01:00:34.881 : en:01:00:34.881
01:06:12.010 : en:01:06:12.010
01:10:32.270 : en:01:10:32.270
01:13:46.380 : en:01:13:46.380
01:24:56.550 : en:01:24:56.550
Релиз от:

Автор релиза: pb.wtf



Скачать Монстры на каникулах 3: Море зовёт через торрент https://b.radikal.ru/b13/1809/dc/faf02b1ec826.png Скачать, смотреть онлайн Монстры на каникулах 3: Море зовёт бесплантно в хорошем качестве Описание: На этот раз Дракула вместе со своими друзьями отправляется в круиз на шикарном лайнере. Развлечения там на любой вкус: от ... 10 10 24
Info! Золотая раздача, скачанное не засчитывается.
Торрент: Зарегистрирован [2018-11-10 12:53] · скачан: 906 раз
Статус: √ проверено
Размер: 2.19 GB
Как cкачать? Как скачать Монстры на каникулах 3: Море зовёт через торрент | UTorrent



Последний раз редактировалось: Enigma2010 (2018-11-10 12:52), всего редактировалось 1 раз

28-11-2019 20:33  

Отключить всю рекламу на сайте

25-09-2018 10:57 Монстры на каникулах 3: Море зовёт Скачать торрент  

У меня одного снова озвучку не слышно???pb.wtf



10-11-2018 12:53 Монстры на каникулах 3: Море зовёт Скачать торрент  

Замена на лицензию.pb.wtf



    Дорогой пользователь! Огромная просьба, поблагодарите релизера, оцените раздачу и оставьте свои комментарий, если Вы скачали Монстры на каникулах 3: Море зовёт через торрент бесплатно!
    Комментировать посты могут только пользователи прошедшие не сложную регистрацию
    Показать сообщения:    

    Монстры на каникулах 3: Море зовёт через торрент
    Скачать бесплатно Монстры на каникулах 3: Море зовёт
    Монстры на каникулах 3: Море зовёт скачать торрент
    Монстры на каникулах 3: Море зовёт смотреть онлайн
    Cкачать фильм Монстры на каникулах 3: Море зовёт бесплатно
    Монстры на каникулах 3: Море зовёт скачать торрент в хорошем качестве
    Монстры на каникулах 3: Море зовёт смотреть онлайн бесплатно в хорошем качестве


    Вы не можете начинать темы
    Вы не можете отвечать на сообщения
    Вы не можете редактировать свои сообщения
    Вы не можете удалять свои сообщения
    Вы не можете голосовать в опросах
    Вы не можете прикреплять файлы к сообщениям
    Вы можете скачивать файлы