Ссылка на приватное зеркало нашего сайта всего за 1$. Внимание количество ограничено!!!

2 сезон

iTunes

1 сезон

1

iTunes

iTunes

iTunes

1 сезон

RePack

30

ИГРА 18+

pack

ВАЖНО

!!Акция!!

Alien_RageХит недели

RePack

MK11
pack

Забери бонус

RePack

jed

!!Акция!!

Alien_Rage

RePack

fifa19

RePack

Assassins Creed: Odyssey

RePack

NEED FOR SPEED™ PAYBACK

4 сезон

9 сезон

Бесстыжие 9 сезон

Все сериалы

все сериалы на PB.wtf

RePack

FAR CRY 5
  

Канцелярская крыса / Сезон: 1 / Серии: 1-16 из 16 (Иван Глубоков, Алан Дзоциев) [2018, Детектив, криминал, WEB-DL 1080p] pb.wtf

Канцелярская крыса через торрент pb.wtf

Размер: 34.11 GB | Добавлен: 2 года назад | Торрент скачан:20 раз
Скачать  

25-09-2018 05:36 Канцелярская крыса Скачать торрент  

Канцелярская крысаГод выпуска: 2018
Страна: Россия
Жанр: Детектив, криминал
Продолжительность: ~ 00:50:00
Субтитры: отсутствуют

Режиссер: Иван Глубоков, Алан Дзоциев



В ролях:

Алексей Кравченко, Константин Стрельников, Ингрид Олеринская, Елена Полякова, Алексей Нилов, Вадим Сквирский, Роман Жилкин, Валерий Гришко, Андрей Павловец, Екатерина Рокотова, Сергей Кошонин, Андрей Полищук, Дмитрий Сутырин

Описание:

Сотрудника полицейского архива — майора Андрея Вершинина — внезапно повышают и переводят в приграничный город Портовый. Вершинину предстоит занять должность руководителя УВД вместо недавно погибшего полковника Авдеева. Нового начальника встречают настороженно: подчинённые почти открыто с ним конфликтуют, а пресса и общественность, взволнованные недавней серией ограблений, просто возмущены этим назначением. Теперь герою предстоит доказать свою компетентность в реальном раскрытии преступлений и не отступиться от дела даже в атмосфере всеобщего недоверия.

Качество: WEB-DL 1080p
Формат: MKV

Видео: MPEG-4 AVC, ~ 6000 Кбит/с, 1920x1080, 25 кадр/с
Аудио: AC3, 2 ch, 192 Кбит/с
скриншот  скриншот  скриншот  

Общее
Уникальный идентификатор : 230512417606456840790297119130014199168 (0xAD6B13A6AEF44A828A60B2558C102D80)
Полное имя : E:\Kantselyarskaya.krysa.2018.WEB-Dl.(1080p).Nikolspup\Kantselyarskaya.krysa.(01.seriya.iz.16).2018.WEB-Dl.(1080p).Nikolspup.mkv
Формат : Matroska
Версия формата : Version 4 / Version 2
Размер файла : 2,17 Гбайт
Продолжительность : 50 м. 34 с.
Режим общего битрейта : Постоянный
Общий поток : 6157 Кбит/сек
Дата кодирования : UTC 2018-09-24 18:39:17
Программа кодирования : mkvmerge v7.8.0 ('River Man') 32bit built on Mar 27 2015 16:18:02
Библиотека кодирования : libebml v1.3.1 + libmatroska v1.4.2

Видео
Идентификатор : 1
Формат : AVC
Формат/Информация : Advanced Video Codec
Профиль формата : High@L4.1
Настройки формата : 2 Ref Frames
Параметр CABAC формата : Нет
Параметр RefFrames формата : 2 кадра
Идентификатор кодека : V_MPEG4/ISO/AVC
Продолжительность : 50 м. 34 с.
Вид битрейта : Постоянный
Битрейт : 6000 Кбит/сек
Ширина : 1920 пикселей
Высота : 1080 пикселей
Соотношение сторон : 16:9
Режим частоты кадров : Постоянный
Частота кадров : 25,000 кадров/сек
Стандарт вещания : PAL
Цветовое пространство : YUV
Субдискретизация насыщенности : 4:2:0
Битовая глубина : 8 бит
Тип развёртки : Прогрессивная
Бит/(Пиксели*Кадры) : 0.116
Размер потока : 2,11 Гбайт (97%)
Default : Да
Forced : Нет
Цветовой диапазон : Limited
Основные цвета : BT.709
Характеристики трансфера : BT.709
Коэффициенты матрицы : BT.709

Аудио
Идентификатор : 2
Формат : AC-3
Формат/Информация : Audio Coding 3
Идентификатор кодека : A_AC3
Продолжительность : 50 м. 34 с.
Вид битрейта : Постоянный
Битрейт : 192 Кбит/сек
Каналы : 2 канала
Расположение каналов : Front: L R
Частота : 48,0 КГц
Частота кадров : 31,250 кадров/сек (1536 SPF)
Битовая глубина : 16 бит
Метод сжатия : С потерями
Размер потока : 69,4 Мбайт (3%)
Язык : Russian
ServiceKind/String : Complete Main
Default : Да
Forced : Нет

Когда раздача ведётся путём добавления новых серий, при каждом добавлении создётся новый торрент. Чтобы начать докачку новой серии, пользователям необходимо сделать следующее:
(1) остановить скачивание,
(2) удалить старый торрент у себя из клиента (старые серии удалять не надо),
(3) скачать новый торрент и запустить его у себя в клиенте вместо старого, при этом указать клиенту путь в старую папку, куда и должно происходить скачивание новых серий.
Ваш клиент при этом должен произвести хеширование (проверку) старой папки (если не производит сам - помогите ему сделать это), и будет докачивать только те серии, которых у вас ещё нет. Старые серии при этом не удаляются, а продолжают раздаваться!
Eсли вы уже удалили старые серии, то предотвратить повторную закачку старых серий можно, отжав галочку в соответствующих местах при запуске нового торрента. По возможности, желательно не удалять старые серии как можно дольше, чтобы релизер не столько продолжал раздавать старые серии, а смог сконцентрироваться на новых.
Закрыть
pb.wtf



Скачать Канцелярская крыса через торрент http://i89.fastpic.ru/big/2018/0924/1b/1c52bd785d869e4754c21fc8c89b681b.jpg Скачать фильм Канцелярская крыса через торрент бесплантно в хорошем качестве Описание: Сотрудника полицейского архива — майора Андрея Вершинина — внезапно повышают и переводят в приграничный город Портовый. Вершинину ... 10 10 7
Info! Золотая раздача, скачанное не засчитывается.
Торрент: Зарегистрирован [2018-10-04 20:35] · скачан: 20 раз
Статус: √ проверено
Размер: 34.11 GB
Как cкачать? Как скачать Канцелярская крыса через торрент | qTorrent

% Раздел Тема Автор DL S | L
Наши сериалы [ 8.7 GB ] Канцелярская крыса / Сезон: 1 / Серии: 1-16 из 16 [2018 WEBRip] bober100 Скачать
1 | 0
Наши сериалы [ 20.43 GB ] Канцелярская крыса / Сезон: 1 / Серии: 1-16 из 16 [2018 WEBRip 720p] bober100 Скачать
1 | 0
Наши сериалы [ 9.41 GB ] Канцелярская крыса / Сезон: 1 / Серии: 1-16 из 16 [2018 WEB-DLRip] bober100 Скачать
2 | 0
Наши сериалы [ 31.74 GB ] Канцелярская крыса Сезон: 1 / Серии: [2018 HDTV 1080p] [Русский] R.G.Generalfilm White Smoke Скачать
1 | 0

28-11-2019 20:33  

Отключить всю рекламу на сайте

    Дорогой пользователь! Огромная просьба, поблагодарите релизера, оцените раздачу и оставьте свои комментарий, если Вы скачали Канцелярская крыса через торрент бесплатно! Внесите свою лепту в развитие PiratBit!
    Комментировать посты могут только пользователи прошедшие не сложную регистрацию
    Показать сообщения:    

    Канцелярская крыса через торрент
    Скачать бесплатно Канцелярская крыса
    Канцелярская крыса скачать торрент
    Канцелярская крыса смотреть онлайн
    Cкачать фильм Канцелярская крыса бесплатно
    Канцелярская крыса скачать торрент в хорошем качестве
    Канцелярская крыса смотреть онлайн бесплатно в хорошем качестве


    Вы не можете начинать темы
    Вы не можете отвечать на сообщения
    Вы не можете редактировать свои сообщения
    Вы не можете удалять свои сообщения
    Вы не можете голосовать в опросах
    Вы не можете прикреплять файлы к сообщениям
    Вы можете скачивать файлы