новый адрес
Ссылка на приватное зеркало всего за 1$. Внимание количество ограничено!!!

iTunes

1+1

iTunes

мы

WEB-DL

1

iTunes

Чернобыль

iTunes

Ральф против интернета

Лицензия

ПШазам

Лицензия

Оно 2

Лицензия

30
pack

Вам бонус

ВАЖНО

!!Акция!!

Alien_RageХит недели

RePack

Resident Evil 21

ИГРА 18+

pack

RePack

jed

!!Акция!!

Alien_Rage

RePack

fifa19

RePack

Assassins Creed: Odyssey

RePack

NEED FOR SPEED™ PAYBACK

3 сезон

9 сезон

Бесстыжие 9 сезон

Все сериалы

все сериалы на PB.wtf

RePack

FAR CRY 5
Ребята, катастрофически не хватает 1900р. для оплаты серверов за Октябрь (всвязи с блокировками трафик упал в 3 раза), 1-2р., выручайте.
  

Битва в пути (Владимир Басов) [1961, СССР, драма, DVDRip от AVP Studio] pb.wtf

Битва в пути через торрент pb.wtf

Размер: 2.18 GB | Добавлен: 1 год 2 мес. назад | Торрент скачан:13 раз
Скачать  

25-09-2018 11:08 Битва в пути Скачать торрент  

Битва в пути
Страна: СССР
Производство: Мосфильм

Жанр: драма
Год выпуска: 1961
Продолжительность: 03:00:22

Перевод: Не требуется
Cубтитры: нет
Оригинальная аудиодорожка: русский

Режиссер: Владимир Басов

В ролях:
Михаил Ульянов, Наталья Фатеева, Михаил Названов, Феликс Яворский, Людмила Крылова, Владимир Трещалов, Николай Сергеев, Александр Хвыля, Олег Мокшанцев, Михаил Туманишвили, Надежда Федосова, Иван Переверзев, Татьяна Махова, Вася Свидетелев, Наташа Чечёткина, Владимир Андреев, Нина Меньшикова, Наталья Крачковская, Инга Будкевич, Юрий Волынцев, Леонид Чубаров, Серафим Зайцев, Игорь Безяев, Николай Парфёнов, Пётр Мухин, Пётр Щербаков, Николай Граббе...
Об актёрах подробней

Описание:
По одноименному роману Галины Николаевой.
На крупный тракторный завод, ранее выпускавший танки, возглавляемый «красным директором сталинской закалки» Семёном Вальганом (Михаил Названов), назначен новый главный инженер Дмитрий Бахирев (Михаил Ульянов). Приход этого человека — жёсткого, прямого и бескомпромиссного — рождает множество конфликтов, из которых он в конце концов — после позорного изгнания и триумфального возвращения — выходит победителем и занимает кресло уволенного Вальгана.

Источник: DVD9 R5
Качество видео: DVDRip
Формат видео: AVI

Видео: 704х528 (4:3), 25,000 кадров/сек, XviD ~ 1529 kbps avg, 0.165 bit/pixel
Аудио: 48 kHz, Dolby Digital AC3 2.0, 192 kbps

Раздача от:
Общее
Полное имя : Bitva.v.puti.1961.DVDRip_[New-team]_by_AVP_Studio.avi
Формат : AVI
Формат/Информация : Audio Video Interleave
Профиль формата : OpenDML
Размер файла : 2,18 Гбайт
Продолжительность : 3 ч. 0 м.
Общий поток : 1733 Кбит/сек
Программа кодирования : VirtualDubMod 1.5.10.3 | www.virtualdub-fr.org || (build 2550/release)
Библиотека кодирования : VirtualDubMod build 2550/release

Видео
Идентификатор : 0
Формат : MPEG-4 Visual
Профиль формата : Advanced Simple@L5
Настройки формата : BVOP1 / Custom Matrix
Параметр BVOP формата : 1
Параметр QPel формата : Нет
Параметр GMC формата : Без точки перехода
Параметр матрицы формата : Выборочная
Идентификатор кодека : XVID
Идентификатор кодека/Подсказка : XviD
Продолжительность : 3 ч. 0 м.
Битрейт : 1529 Кбит/сек
Ширина : 704 пикселя
Высота : 528 пикселей
Соотношение сторон : 4:3
Частота кадров : 25,000 кадров/сек
Цветовое пространство : YUV
Субдискретизация насыщенности : 4:2:0
Битовая глубина : 8 бит
Тип развёртки : Прогрессивная
Метод сжатия : С потерями
Бит/(Пиксели*Кадры) : 0.165
Размер потока : 1,93 Гбайт (88%)
Библиотека кодирования : XviD 73

Аудио
Идентификатор : 1
Формат : AC-3
Формат/Информация : Audio Coding 3
Коммерческое название : Dolby Digital
Идентификатор кодека : 2000
Продолжительность : 3 ч. 0 м.
Вид битрейта : Постоянный
Битрейт : 192 Кбит/сек
Каналы : 2 канала
Channel layout : L R
Частота : 48,0 КГц
Частота кадров : 31,250 кадров/сек (1536 SPF)
Битовая глубина : 16 бит
Метод сжатия : С потерями
Размер потока : 248 Мбайт (11%)
Выравнивание : Разделение по промежуткам
Продолжительность промежутка : 40 мс. (1,00 видеокадр)
Время предзагрузки промежутка : 500 мс
pb.wtf



Скачать Битва в пути через торрент http://picplus.ru/img/1809/25/97c5d29b.png Скачать фильм Битва в пути через торрент бесплантно в хорошем качестве Описание:По одноименному роману Галины Николаевой.На крупный тракторный завод, ранее выпускавший танки, возглавляемый «красным директором ... 5 10 1
Info! Золотая раздача, скачанное не засчитывается.
Торрент: Зарегистрирован [2018-09-25 11:08] · скачан: 13 раз
Статус: √ проверено
Размер: 2.18 GB
Как cкачать? Как скачать Битва в пути через торрент | qTorrent

% Раздел Тема Автор DL S | L
Кино СССР [ 2.18 GB ] Битва в пути [1961 СССР DVDRip-AVC от AVP Studio] AVP Studio Скачать
1 | 0

28-11-2019 20:33  

Отключить всю рекламу на сайте

    Дорогой пользователь! Огромная просьба, поблагодарите релизера, оцените раздачу и оставьте свои комментарий, если Вы скачали Битва в пути через торрент бесплатно! Внесите свою лепту в развитие PiratBit!
    Комментировать посты могут только пользователи прошедшие не сложную регистрацию
    Показать сообщения:    

    Битва в пути через торрент
    Скачать бесплатно Битва в пути
    Битва в пути скачать торрент
    Битва в пути смотреть онлайн
    Cкачать фильм Битва в пути бесплатно
    Битва в пути скачать торрент в хорошем качестве
    Битва в пути смотреть онлайн бесплатно в хорошем качестве


    Вы не можете начинать темы
    Вы не можете отвечать на сообщения
    Вы не можете редактировать свои сообщения
    Вы не можете удалять свои сообщения
    Вы не можете голосовать в опросах
    Вы не можете прикреплять файлы к сообщениям
    Вы можете скачивать файлы