Ссылка на приватное зеркало нашего сайта всего за 1$. Внимание количество ограничено!!!

2 сезон

iTunes

1 сезон

1

2 сезон

2 сезон

iTunes

1 сезон

RePack

30

Новинка

ВАЖНО

ИГРА 18+

pack

RePack

MK11
pack

Забери бонус

RePack

jed

!!Акция!!

Alien_Rage

RePack

fifa19

RePack

Assassins Creed: Odyssey

RePack

NEED FOR SPEED™ PAYBACK

4 сезон

9 сезон

Бесстыжие 9 сезон

Все сериалы

все сериалы на PB.wtf

RePack

FAR CRY 5
  

Убийца 2. Против всех / Sicario 2: Soldado (Стефано Соллима) [2018, боевик, триллер, драма, BDRemux 1080p] MVO [HDRezka Studio] + 2xAVO pb.wtf

Убийца 2. Против всех через торрент pb.wtf

Раздают: 1 [ 0 KB/s ]
Размер: 25.38 GB | Добавлен: 2 года 2 мес. назад | Торрент скачан:204 раза
Скачать  

25-09-2018 11:09 Убийца 2. Против всех Скачать торрент  

Убийца 2. Против всех / Sicario 2: Soldado«Правила мертвы»
Год выпуска: 2018
Страна: США, Италия
Жанр: боевик, триллер, драма, криминал
Продолжительность: 02:02:24
Перевод: Многоголосый закадровый, Одноголосый закадровый (авторский)
Субтитры: Английские (Full, SDH)
Режиссер: Стефано Соллима
В ролях:

Бенисио Дель Торо (Alejandro), Джош Бролин (Matt Graver), Изабела Монер (Isabel Reyes), Джеффри Донован (Steve Forsing), Кэтрин Кинер (Cynthia Foards), Мануэль Рульфо (Gallo), Мэттью Модайн (James Riley), Шей Уигэм (Andy Wheeldon), Элиас Гарза (Miguel Hernandez), Ховард Фергюсон мл. (Troy), Дэвид Кастанеда (Hector), Жаклин Торрес (Blandina)
Описание:
Обстановка на американо-мексиканской границе накаляется, когда наркокартели начинают переправлять в США террористов. Чтобы дать им отпор федеральный агент Мэтт Грейвер вынужден вновь объединиться с не самым надежным напарником - Алехандро.
Рейтинг:

MPAA: R - Лицам до 17 лет обязательно присутствие взрослого
Качество: BDRemux 1080p
Формат: MKV
Видео: MPEG-4 AVC, 1920х1080, 23.976 fps, 24.9 Mbps, 0.502 bit/pixel
Аудио #1: AC-3, 2.0, 48 KHz, 192 Kbps | Русский (MVO, HDRezka)
Аудио #2: AC-3, 5.1, 48 KHz, 640 Kbps | Русский (AVO, Д.Есарев) цензурный перевод
Аудио #3: AC-3, 5.1, 48 KHz, 640 Kbps | Русский (AVO, А.Важенин)
Аудио #4: DTS-HD MA, 7.1, 48 KHz, 2 635 Kbps | Английский
Аудио #5: AC-3, 5.1, 48 KHz, 640 Kbps | Английский
Навигация по главам: Есть
Без рекламы!

Общая граница между США и Мексикой составляет 3200 км, которая довольно условна. Там нет ни колючей проволоки и пограничников с собаками. С американской стороны несколько лет назад начали постройку стены, но она не была достроена до конца. Вдоль границы ездит пограничный патруль, летают вертолеты в поисках нелегалов и установлены камеры видеонаблюдения. Одна из причин, почему выгодно держать границу открытой — это наркоторговля. Через границу переправляются тонны наркотиков из Мексики в США, крутятся миллионы долларов по обе стороны границы.
Вдоль границы с мексиканской стороны стоят несколько сотен гостевых домиков и схронов. Под великой недостроенной стеной мексиканцы вырыли множество подземных переходов. С мексиканской стороны переправка людей в США поставлена на коммерческую основу: каждую группу переводит через границу опытный проводник. Группа из 15−20 человек нанимает такого проводника. Потом все организованно собираются в «доме для гостей» и ожидают благоприятных условий для перехода. После пересечения границы проводник отчаливает обратно, а группа на свой страх и риск начинает путешествие уже по американской территории. Прогулку по раскаленной пустыне приятной не назовешь. В Аризоне ежегодно находят от 150 до 200 трупов мексиканцев, умерших от жары и жажды в пустыне Сонора.
General
Unique ID : 124676007531206988861617783987185605603 (0x5DCBB9C29109B04ECDFECA4112F35BE3)
Complete name : E:\Sicario.Day.of.the.Soldado.2018.BDRemux.1080p.MVO.AVO.NNMClub.mkv
Format : Matroska
Format version : Version 4 / Version 2
File size : 25.4 GiB
Duration : 2 h 2 min
Overall bit rate mode : Variable
Overall bit rate : 29.7 Mb/s
Encoded date : UTC 2018-09-25 07:52:59
Writing application : mkvmerge v26.0.0 ('In The Game') 64-bit
Writing library : libebml v1.3.6 + libmatroska v1.4.9

Video
ID : 1
Format : AVC
Format/Info : Advanced Video Codec
Format profile : High@L4.1
Format settings, CABAC : Yes
Format settings, RefFrames : 2 frames
Format settings, GOP : M=1, N=10
Codec ID : V_MPEG4/ISO/AVC
Duration : 2 h 2 min
Bit rate mode : Variable
Width : 1 920 pixels
Height : 1 080 pixels
Display aspect ratio : 16:9
Frame rate mode : Constant
Frame rate : 23.976 (24000/1001) FPS
Color space : YUV
Chroma subsampling : 4:2:0
Bit depth : 8 bits
Scan type : Progressive
Language : English
Default : Yes
Forced : No

Audio #1
ID : 2
Format : AC-3
Format/Info : Audio Coding 3
Format settings, Endianness : Big
Codec ID : A_AC3
Duration : 2 h 2 min
Bit rate mode : Constant
Bit rate : 192 kb/s
Channel(s) : 2 channels
Channel positions : Front: L R
Sampling rate : 48.0 kHz
Frame rate : 31.250 FPS (1536 SPF)
Bit depth : 16 bits
Compression mode : Lossy
Stream size : 168 MiB (1%)
Title : MVO - HDRezka
Language : Russian
Service kind : Complete Main
Default : No
Forced : No

Audio #2
ID : 3
Format : AC-3
Format/Info : Audio Coding 3
Format settings, Endianness : Big
Codec ID : A_AC3
Duration : 2 h 2 min
Bit rate mode : Constant
Bit rate : 640 kb/s
Channel(s) : 6 channels
Channel positions : Front: L C R, Side: L R, LFE
Sampling rate : 48.0 kHz
Frame rate : 31.250 FPS (1536 SPF)
Bit depth : 16 bits
Compression mode : Lossy
Stream size : 560 MiB (2%)
Title : AVO - Esarev
Language : Russian
Service kind : Complete Main
Default : No
Forced : No

Audio #3
ID : 4
Format : AC-3
Format/Info : Audio Coding 3
Format settings, Endianness : Big
Codec ID : A_AC3
Duration : 2 h 2 min
Bit rate mode : Constant
Bit rate : 640 kb/s
Channel(s) : 6 channels
Channel positions : Front: L C R, Side: L R, LFE
Sampling rate : 48.0 kHz
Frame rate : 31.250 FPS (1536 SPF)
Bit depth : 16 bits
Compression mode : Lossy
Stream size : 560 MiB (2%)
Title : AVO - BadBajo
Language : Russian
Service kind : Complete Main
Default : No
Forced : No

Audio #4
ID : 5
Format : DTS
Format/Info : Digital Theater Systems
Format profile : MA / Core
Mode : 16
Format settings, Endianness : Big
Codec ID : A_DTS
Duration : 2 h 2 min
Bit rate mode : Variable / Constant
Bit rate : Unknown / 1 509 kb/s
Channel(s) : 8 channels / 6 channels
Channel positions : Front: L C R, Side: L R, Back: L R, LFE / Front: L C R, Side: L R, LFE
Sampling rate : 48.0 kHz
Frame rate : 93.750 FPS (512 SPF)
Bit depth : 16 bits
Compression mode : Lossless / Lossy
Language : English
Default : No
Forced : No

Audio #5
ID : 6
Format : AC-3
Format/Info : Audio Coding 3
Format settings, Endianness : Big
Codec ID : A_AC3
Duration : 2 h 2 min
Bit rate mode : Constant
Bit rate : 640 kb/s
Channel(s) : 6 channels
Channel positions : Front: L C R, Side: L R, LFE
Sampling rate : 48.0 kHz
Frame rate : 31.250 FPS (1536 SPF)
Bit depth : 16 bits
Compression mode : Lossy
Stream size : 560 MiB (2%)
Language : English
Service kind : Complete Main
Default : No
Forced : No

Text #1
ID : 7
Format : UTF-8
Codec ID : S_TEXT/UTF8
Codec ID/Info : UTF-8 Plain Text
Title : Full
Language : English
Default : No
Forced : No

Text #2
ID : 8
Format : UTF-8
Codec ID : S_TEXT/UTF8
Codec ID/Info : UTF-8 Plain Text
Title : SDH
Language : English
Default : No
Forced : No

Menu
00:00:00.000 : :00:00:00.000
00:06:38.189 : :00:06:38.189
00:14:45.592 : :00:14:45.592
00:18:48.501 : :00:18:48.501
00:27:08.335 : :00:27:08.335
00:34:08.963 : :00:34:08.963
00:42:28.670 : :00:42:28.670
00:51:10.442 : :00:51:10.442
01:00:58.070 : :01:00:58.070
01:09:20.113 : :01:09:20.113
01:14:26.795 : :01:14:26.795
01:23:24.957 : :01:23:24.957
01:28:41.356 : :01:28:41.356
01:35:38.899 : :01:35:38.899
01:41:44.347 : :01:41:44.347
01:46:15.493 : :01:46:15.493
pb.wtf



Скачать Убийца 2. Против всех через торрент https://d.radikal.ru/d26/1809/cb/aa73eaa51f78.png Скачать фильм Убийца 2. Против всех через торрент бесплантно в хорошем качестве Описание: Обстановка на американо-мексиканской границе накаляется, когда наркокартели начинают переправлять в США террористов. Чтобы дать ... 10 10 7
Info! Золотая раздача, скачанное не засчитывается.
Торрент: Зарегистрирован [2018-09-25 11:09] · скачан: 204 раз
Статус: T временная
Размер: 25.38 GB
Как cкачать? Как скачать Убийца 2. Против всех через торрент | qTorrent

% Раздел Тема Автор DL S | L
Фильмы 2018 [DVDrip, WEB-DLRip, HDrip] (DUB, MVO) [ 3.21 GB ] Убийца 2. Против всех / Sicario 2: Soldado [2018 BDRip-AVC] 2xAVO [Есарев BadBajo] +MVO [HDRezka Studio] + bober100 Скачать
1 | 0
Ultra HD (UHD: 2K, 4K, 8K) — видео сверхвысокой чёткости [ 62.04 GB ] Убийца 2. Против всех / Sicario 2: Day of the Soldado [2018 UHD BDRemux 2160p ] 2xAVO+MVO bober100 Скачать
2 | 0


Последний раз редактировалось: sheker187 (2018-09-25 17:35), всего редактировалось 1 раз

28-11-2019 20:33  

Отключить всю рекламу на сайте

25-09-2018 14:04 Убийца 2. Против всех Скачать торрент  

Авторская озвучка Есарева ненорматив или цензура?pb.wtf



25-09-2018 17:31 Убийца 2. Против всех Скачать торрент  

tolikss330 писал(а):

Авторская озвучка Есарева ненорматив или цензура?

Цензураpb.wtf



    Дорогой пользователь! Огромная просьба, поблагодарите релизера, оцените раздачу и оставьте свои комментарий, если Вы скачали Убийца 2. Против всех через торрент бесплатно! Внесите свою лепту в развитие PiratBit!
    Комментировать посты могут только пользователи прошедшие не сложную регистрацию
    Показать сообщения:    

    Убийца 2. Против всех через торрент
    Скачать бесплатно Убийца 2. Против всех
    Убийца 2. Против всех скачать торрент
    Убийца 2. Против всех смотреть онлайн
    Cкачать фильм Убийца 2. Против всех бесплатно
    Убийца 2. Против всех скачать торрент в хорошем качестве
    Убийца 2. Против всех смотреть онлайн бесплатно в хорошем качестве


    Вы не можете начинать темы
    Вы не можете отвечать на сообщения
    Вы не можете редактировать свои сообщения
    Вы не можете удалять свои сообщения
    Вы не можете голосовать в опросах
    Вы не можете прикреплять файлы к сообщениям
    Вы можете скачивать файлы