Ссылка на приватное зеркало нашего сайта всего за 1$. Внимание количество ограничено!!!

2 сезон

iTunes

1 сезон

1

2 сезон

2 сезон

iTunes

1 сезон

RePack

30

Новинка

ВАЖНО

ИГРА 18+

pack

RePack

MK11
pack

Забери бонус

RePack

jed

!!Акция!!

Alien_Rage

RePack

fifa19

RePack

Assassins Creed: Odyssey

RePack

NEED FOR SPEED™ PAYBACK

4 сезон

9 сезон

Бесстыжие 9 сезон

Все сериалы

все сериалы на PB.wtf

RePack

FAR CRY 5
  

Субура / Suburra / Сезон: 1 / Серии 1-10 из 10 (Джузеппе Капотонди, Андреа Молайоли, Микеле Плачидо) [2017 , Италия, боевик, криминал, UHD WEBRip 2160p] 2xMVO pb.wtf

Субура через торрент pb.wtf

Размер: 133.98 GB | Добавлен: 2 года 2 мес. назад | Торрент скачан:1 раз
Скачать  

25-09-2018 12:11 Субура Скачать торрент  

Субура / Suburra - La serie

Год выпуска: 2017
Страна: Италия
Жанр: боевик, криминал
Продолжительность: 10 х ~ 0:55:00
Перевод: Профессиональный многоголосый
Субтитры: Английские, французские, немецкие, итальянские, испанские
Режиссер: Джузеппе Капотонди , Андреа Молайоли , Микеле Плачидо
В ролях:

Алессандро Борги (Aureliano Adami), Джакомо Феррара (Spadino Anacleti), Эдуардо Вальдарнини (Gabriele Marchilli), Франческо Аквароли (Samurai), Филиппо Нигро (Amedeo Cinaglia), Клаудия Джерини (Sara Monaschi), Адамо Дионизи (Manfredi Anacleti), Barbara Chichiarelli (Livia Adami), Lorena Cesarini (Isabelle), Alessandro Bernardini (Guerri), Carlotta Antonelli (Angelica Sale), Paola Sotgiu (Mamma Anacleti)
Описание:
Сериал расскажет о событиях, происходящих в Субуре - одном из старейших районов Рима, который на протяжении многих лет считался одним из самых опасных на территории города. Здесь процветала торговля наркотиками, проституция, а на тёмных улицах нередко происходили кровавые разборки различных криминальных группировок. В центре сюжета оказываются трое молодых амбициозных парней, чья жажда славы, денег и власти втягивает их в жестокую борьбу за землю в небольшом приморском городке, расположенном недалеко от Рима.
Рейтинг:

Качество: UHD WEBRip 2160p
Формат: MKV
Видео: MPEG-4 AVC, High@L5.1, 8 bits, ~ 39.0 Mбит/с Mбит/с, 3840x2076, 25.000 кадр/с
Аудио: Русский (AC3, 6 ch, 640 Кбит/с) / Профессиональный многоголосый (Baibako)
Аудио: Русский (AC3, 6 ch, 384 Кбит/с) / Профессиональный многоголосый (FocusStudio)
Аудио: Итальянский (AC3, 6 ch, 384 Кбит/с)
General
Unique ID : 48343968286675366071117842325116323439 (0x245EB5A95A8845EBB1E3CB72D08C866F)
Complete name : D:uTorrentSuburra.2017.WEBRip.2160p.S01.MediaClubSuburra.S01E01.WEBRip.2160p.NF.MediaClub.mkv
Format : Matroska
Format version : Version 4
File size : 17.9 GiB
Duration : 1 h 3 min
Overall bit rate : 40.4 Mb/s
Encoded date : UTC 2018-09-22 10:23:17
Writing application : mkvmerge v25.0.0 ('Prog Noir') 64-bit
Writing library : libebml v1.3.6 + libmatroska v1.4.9
Cover : Yes
Attachments : cover.jpg

Video
ID : 1
Format : AVC
Format/Info : Advanced Video Codec
Format profile : High@L5.1
Format settings : CABAC / 5 Ref Frames
Format settings, CABAC : Yes
Format settings, RefFrames : 5 frames
Codec ID : V_MPEG4/ISO/AVC
Duration : 1 h 2 min
Bit rate : 39.4 Mb/s
Width : 3 840 pixels
Height : 2 076 pixels
Display aspect ratio : 1.85:1
Frame rate mode : Constant
Frame rate : 25.000 FPS
Color space : YUV
Chroma subsampling : 4:2:0
Bit depth : 8 bits
Scan type : Progressive
Bits/(Pixel*Frame) : 0.198
Stream size : 17.3 GiB (97%)
Title : WEBRip.2160p by Silverok
Writing library : x264 core 152 r2851kMod ba24899
Encoding settings : cabac=1 / ref=5 / deblock=1:-3:-3 / analyse=0x3:0x133 / me=umh / subme=10 / psy=1 / fade_compensate=0.00 / psy_rd=1.00:0.00 / mixed_ref=1 / me_range=48 / chroma_me=1 / trellis=2 / 8x8dct=1 / cqm=0 / deadzone=21,11 / fast_pskip=0 / chroma_qp_offset=-2 / threads=12 / lookahead_threads=2 / sliced_threads=0 / nr=0 / decimate=0 / interlaced=0 / bluray_compat=0 / constrained_intra=0 / bframes=8 / b_pyramid=2 / b_adapt=2 / b_bias=0 / direct=3 / weightb=1 / open_gop=0 / weightp=2 / keyint=250 / keyint_min=25 / scenecut=40 / intra_refresh=0 / rc=crf / mbtree=0 / crf=19.0000 / qcomp=0.60 / qpmin=0 / qpmax=69 / qpstep=4 / ip_ratio=1.30 / pb_ratio=1.20 / aq=3:0.80
Default : Yes
Forced : No

Audio #1
ID : 2
Format : AC-3
Format/Info : Audio Coding 3
Commercial name : Dolby Digital
Codec ID : A_AC3
Duration : 1 h 3 min
Bit rate mode : Constant
Bit rate : 640 kb/s
Channel(s) : 6 channels
Channel layout : L R C LFE Ls Rs
Sampling rate : 48.0 kHz
Frame rate : 31.250 FPS (1536 SPF)
Bit depth : 16 bits
Compression mode : Lossy
Stream size : 290 MiB (2%)
Title : Профессиональный многоголосый (Baibako)
Language : Russian
Service kind : Complete Main
Default : Yes
Forced : No

Audio #2
ID : 3
Format : AC-3
Format/Info : Audio Coding 3
Commercial name : Dolby Digital
Codec ID : A_AC3
Duration : 1 h 2 min
Bit rate mode : Constant
Bit rate : 384 kb/s
Channel(s) : 6 channels
Channel layout : L R C LFE Ls Rs
Sampling rate : 48.0 kHz
Frame rate : 31.250 FPS (1536 SPF)
Bit depth : 16 bits
Compression mode : Lossy
Stream size : 172 MiB (1%)
Title : Профессиональный многоголосый (FocusStudio)
Language : Russian
Service kind : Complete Main
Default : No
Forced : No

Audio #3
ID : 4
Format : AC-3
Format/Info : Audio Coding 3
Commercial name : Dolby Digital
Codec ID : A_AC3
Duration : 1 h 2 min
Bit rate mode : Constant
Bit rate : 384 kb/s
Channel(s) : 6 channels
Channel layout : L R C LFE Ls Rs
Sampling rate : 48.0 kHz
Frame rate : 31.250 FPS (1536 SPF)
Bit depth : 16 bits
Compression mode : Lossy
Stream size : 172 MiB (1%)
Language : Italian
Service kind : Complete Main
Default : No
Forced : No

Text #1
ID : 5
Format : UTF-8
Codec ID : S_TEXT/UTF8
Codec ID/Info : UTF-8 Plain Text
Duration : 58 min 38 s
Bit rate : 46 b/s
Count of elements : 602
Stream size : 19.9 KiB (0%)
Language : English
Default : Yes
Forced : No

Text #2
ID : 6
Format : UTF-8
Codec ID : S_TEXT/UTF8
Codec ID/Info : UTF-8 Plain Text
Duration : 58 min 40 s
Bit rate : 53 b/s
Count of elements : 604
Stream size : 23.1 KiB (0%)
Language : French
Default : No
Forced : No

Text #3
ID : 7
Format : UTF-8
Codec ID : S_TEXT/UTF8
Codec ID/Info : UTF-8 Plain Text
Duration : 58 min 38 s
Bit rate : 51 b/s
Count of elements : 624
Stream size : 22.3 KiB (0%)
Language : German
Default : No
Forced : No

Text #4
ID : 8
Format : UTF-8
Codec ID : S_TEXT/UTF8
Codec ID/Info : UTF-8 Plain Text
Duration : 58 min 38 s
Bit rate : 57 b/s
Count of elements : 727
Stream size : 24.9 KiB (0%)
Language : Italian
Default : No
Forced : No

Text #5
ID : 9
Format : UTF-8
Codec ID : S_TEXT/UTF8
Codec ID/Info : UTF-8 Plain Text
Duration : 58 min 40 s
Bit rate : 49 b/s
Count of elements : 603
Stream size : 21.1 KiB (0%)
Language : Spanish
Default : No
Forced : No
pb.wtf



Скачать Субура через торрент https://c.radikal.ru/c04/1809/b8/0304d8c334dd.jpg Скачать фильм Субура через торрент бесплантно в хорошем качестве Описание: Сериал расскажет о событиях, происходящих в Субуре - одном из старейших районов Рима, который на протяжении многих лет считался ... 10 10 3
Торрент: Зарегистрирован [2018-09-25 12:11] · скачан: 1 раз
Статус: √ проверено
Размер: 133.98 GB
Как cкачать? Как скачать Субура через торрент | qTorrent

28-11-2019 20:33  

Отключить всю рекламу на сайте

25-09-2018 23:55 Субура Скачать торрент  

у одного из парней на втором скрине зачетные сиськи)pb.wtf



    Дорогой пользователь! Огромная просьба, поблагодарите релизера, оцените раздачу и оставьте свои комментарий, если Вы скачали Субура через торрент бесплатно! Внесите свою лепту в развитие PiratBit!
    Комментировать посты могут только пользователи прошедшие не сложную регистрацию
    Показать сообщения:    

    Субура через торрент
    Скачать бесплатно Субура
    Субура скачать торрент
    Субура смотреть онлайн
    Cкачать фильм Субура бесплатно
    Субура скачать торрент в хорошем качестве
    Субура смотреть онлайн бесплатно в хорошем качестве


    Вы не можете начинать темы
    Вы не можете отвечать на сообщения
    Вы не можете редактировать свои сообщения
    Вы не можете удалять свои сообщения
    Вы не можете голосовать в опросах
    Вы не можете прикреплять файлы к сообщениям
    Вы можете скачивать файлы