новый адрес
Ссылка на приватное зеркало всего за 1$. Внимание количество ограничено!!!

iTunes

1+1

iTunes

мы

WEB-DL

1

iTunes

Чернобыль

iTunes

Ральф против интернета

Лицензия

ПШазам

Лицензия

Оно 2

Лицензия

30
pack

Вам бонус

ВАЖНО

!!Акция!!

Alien_RageХит недели

RePack

Resident Evil 21

ИГРА 18+

pack

RePack

jed

!!Акция!!

Alien_Rage

RePack

fifa19

RePack

Assassins Creed: Odyssey

RePack

NEED FOR SPEED™ PAYBACK

3 сезон

9 сезон

Бесстыжие 9 сезон

Все сериалы

все сериалы на PB.wtf

RePack

FAR CRY 5
Ребята, катастрофически не хватает 1900р. для оплаты серверов за Октябрь (всвязи с блокировками трафик упал в 3 раза), 1-2р., выручайте.
  

Окончательный счёт / Final Score (Скотт Манн) [2018, боевик, BDRip-AVC] MVO [HDRezka Studio] - ExKinoRay pb.wtf

Окончательный счёт через торрент pb.wtf

Раздают: 3 [ 0 KB/s ]
Размер: 2.02 GB | Добавлен: 1 год 1 мес. назад | Торрент скачан:329 раз
Скачать  

25-09-2018 13:06 Окончательный счёт Скачать торрент  

Информация о фильме
Название: Окончательный счёт
Оригинальное название: Final Score
Год выхода: 2018
Жанр: Боевик
Режиссер: Скотт Манн
В ролях: Дэйв Батиста, Пирс Броснан, Рэй Стивенсон, Мартин Форд, Ральф Браун, Виктория Брум, Люси Гаскелл, Крэйг Конуэй, Стелла Париж, Аарон МакКаскер

Описание:
Во время террористической атаки племянница Майка затерялась где-то на футбольном стадионе, где они смотрели текущий матч. Ему придётся вспомнить все свои старые навыки, чтобы спасти девочку и предотвратить катастрофу.

rating

Страна: Великобритания
Студия: Signature Films,Drybake Final Score,Highland Film Group
Продолжительность: 01:44:44
Перевод: Профессиональный многоголосый | HDRezka Studio
Субтитры: Английские

БЕЗ КАКОЙ-ЛИБО РЕКЛАМЫ!

Формат: MKV
Качество: BDRip-AVC
Видео: MPEG-4 AVC, 1024x428 (2.35:1), 23.976 fps, 2123 Kbps, 0.202 bit/pixel
Аудио 1: 48 kHz, AC3, 2.0, 192 Kbps | HDRezka Studio | RUS |
Аудио 2: 48 kHz, AC3, 5.1, 448 Kbps | Оригинал | ENG |
General
Unique ID : 189375601743403814277936291757679679509 (0x8E786A09E3A2FB969FAEBC32A1939815)
Complete name : D:\Final.Score.2018.MVO.BDRip.AVC.ExKinoRay.mkv
Format : Matroska
Format version : Version 2
File size : 2.02 GiB
Duration : 1 h 44 min
Overall bit rate : 2 760 kb/s
Movie name : Final Score 2018 from ExKinoRay
Encoded date : UTC 2018-11-07 12:13:33
Writing application : mkvmerge v5.6.0 ('Kenya Kane') built on May 27 2012 16:44:04
Writing library : libebml v1.2.3 + libmatroska v1.3.0

Video
ID : 1
Format : AVC
Format/Info : Advanced Video Codec
Format profile : High@L4.1
Format settings, CABAC : Yes
Format settings, ReFrames : 12 frames
Codec ID : V_MPEG4/ISO/AVC
Duration : 1 h 44 min
Bit rate : 2 123 kb/s
Width : 1 024 pixels
Height : 428 pixels
Display aspect ratio : 2.40:1
Frame rate mode : Constant
Frame rate : 23.976 (23976/1000) FPS
Color space : YUV
Chroma subsampling : 4:2:0
Bit depth : 8 bits
Scan type : Progressive
Bits/(Pixel*Frame) : 0.202
Stream size : 1.51 GiB (75%)
Writing library : x264 core 152 r2851 ba24899
Encoding settings : cabac=1 / ref=12 / deblock=1:-2:-2 / analyse=0x3:0x113 / me=umh / subme=10 / psy=1 / psy_rd=1.02:0.08 / mixed_ref=1 / me_range=32 / chroma_me=1 / trellis=2 / 8x8dct=1 / cqm=0 / deadzone=21,11 / fast_pskip=0 / chroma_qp_offset=-3 / threads=12 / lookahead_threads=3 / sliced_threads=0 / nr=0 / decimate=0 / interlaced=0 / bluray_compat=0 / constrained_intra=0 / bframes=12 / b_pyramid=2 / b_adapt=2 / b_bias=0 / direct=3 / weightb=1 / open_gop=0 / weightp=2 / keyint=240 / keyint_min=23 / scenecut=40 / intra_refresh=0 / rc=2pass / mbtree=0 / bitrate=2123 / ratetol=1.0 / qcomp=0.60 / qpmin=0 / qpmax=51 / qpstep=4 / cplxblur=20.0 / qblur=0.5 / ip_ratio=1.40 / pb_ratio=1.30 / aq=2:0.90
Language : English
Default : Yes
Forced : No
Color range : Limited
Color primaries : BT.709
Transfer characteristics : BT.709
Matrix coefficients : BT.709

Audio #1
ID : 2
Format : AC-3
Format/Info : Audio Coding 3
Mode extension : CM (complete main)
Format settings, Endianness : Big
Codec ID : A_AC3
Duration : 1 h 44 min
Bit rate mode : Constant
Bit rate : 192 kb/s
Channel(s) : 2 channels
Channel positions : Front: L R
Sampling rate : 48.0 kHz
Frame rate : 31.250 FPS (1536 spf)
Compression mode : Lossy
Stream size : 144 MiB (7%)
Title : MVO
Language : Russian
Default : Yes
Forced : No

Audio #2
ID : 3
Format : AC-3
Format/Info : Audio Coding 3
Mode extension : CM (complete main)
Format settings, Endianness : Big
Codec ID : A_AC3
Duration : 1 h 44 min
Bit rate mode : Constant
Bit rate : 448 kb/s
Channel(s) : 6 channels
Channel positions : Front: L C R, Side: L R, LFE
Sampling rate : 48.0 kHz
Frame rate : 31.250 FPS (1536 spf)
Compression mode : Lossy
Stream size : 336 MiB (16%)
Language : English
Default : No
Forced : No

Text
ID : 4
Format : UTF-8
Codec ID : S_TEXT/UTF8
Codec ID/Info : UTF-8 Plain Text
Language : English
Default : No
Forced : No

Menu
00:00:00.000 : :00:00:00.000
00:04:55.212 : :00:04:55.212
00:12:20.490 : :00:12:20.490
00:19:22.328 : :00:19:22.328
00:26:07.316 : :00:26:07.316
00:32:03.547 : :00:32:03.547
00:37:42.260 : :00:37:42.260
00:44:52.148 : :00:44:52.148
00:50:28.651 : :00:50:28.651
00:55:18.232 : :00:55:18.232
01:04:28.239 : :01:04:28.239
01:09:22.325 : :01:09:22.325
01:15:25.229 : :01:15:25.229
01:20:17.813 : :01:20:17.813
01:27:18.775 : :01:27:18.775
01:34:14.107 : :01:34:14.107
Релиз от:

Автор релиза: pb.wtf



Скачать Окончательный счёт через торрент https://a.radikal.ru/a36/1809/49/affc0111a770.png Скачать фильм Окончательный счёт через торрент бесплантно в хорошем качестве Описание: Во время террористической атаки племянница Майка затерялась где-то на футбольном стадионе, где они смотрели текущий матч. Ему ... 8.9 10 16
Info! Золотая раздача, скачанное не засчитывается.
Торрент: Зарегистрирован [2018-11-07 13:11] · скачан: 329 раз
Статус: T временная
Размер: 2.02 GB
Как cкачать? Как скачать Окончательный счёт через торрент | qTorrent



Последний раз редактировалось: Enigma2010 (2018-11-07 13:11), всего редактировалось 1 раз

28-11-2019 20:33  

Отключить всю рекламу на сайте

25-09-2018 20:08 Окончательный счёт Скачать торрент  

О УЖОС.... и ЗДесь БЛЭК СТАР МАФИЯ... опять ЭТОТ ДЖИГАН )))) ЗЫ... фильм редкостное фу, на идиота , про супер-мэна ДЖИГАНА...pb.wtf



26-09-2018 10:55 Окончательный счёт Скачать торрент  

off_46_ писал(а):

О УЖОС.... и ЗДесь БЛЭК СТАР МАФИЯ... опять ЭТОТ ДЖИГАН )))) ЗЫ... фильм редкостное фу, на идиота , про супер-мэна ДЖИГАНА...

так то Батиста это вам ни разу не джиган. крутой тип, рестлер тоже топовый был. ну да ладно :)pb.wtf



    Дорогой пользователь! Огромная просьба, поблагодарите релизера, оцените раздачу и оставьте свои комментарий, если Вы скачали Окончательный счёт через торрент бесплатно! Внесите свою лепту в развитие PiratBit!
    Комментировать посты могут только пользователи прошедшие не сложную регистрацию
    Показать сообщения:    

    Окончательный счёт через торрент
    Скачать бесплатно Окончательный счёт
    Окончательный счёт скачать торрент
    Окончательный счёт смотреть онлайн
    Cкачать фильм Окончательный счёт бесплатно
    Окончательный счёт скачать торрент в хорошем качестве
    Окончательный счёт смотреть онлайн бесплатно в хорошем качестве


    Вы не можете начинать темы
    Вы не можете отвечать на сообщения
    Вы не можете редактировать свои сообщения
    Вы не можете удалять свои сообщения
    Вы не можете голосовать в опросах
    Вы не можете прикреплять файлы к сообщениям
    Вы можете скачивать файлы