Ссылка на приватное зеркало нашего сайта всего за 1$. Внимание количество ограничено!!!

2 сезон

iTunes

1 сезон

1

2 сезон

2 сезон

iTunes

1 сезон

RePack

30

Ultimate

ВАЖНО

ИГРА 18+

pack

RePack

MK11
pack

Забери бонус

RePack

jed

!!Акция!!

Alien_Rage

RePack

fifa19

RePack

Assassins Creed: Odyssey

RePack

NEED FOR SPEED™ PAYBACK

4 сезон

9 сезон

Бесстыжие 9 сезон

Все сериалы

все сериалы на PB.wtf

RePack

FAR CRY 5
  

Большой куш / Snatch / Сезон: 2 / Серии: 1-10 из 10 (Лоуренс Гоф, Николас Рентон, Джеффри Сакс) [2018, Комедия, криминал, WEBRip] MVO [Jaskier] pb.wtf

Большой куш через торрент pb.wtf

Размер: 4.89 GB | Добавлен: 2 года 1 мес. назад | Торрент скачан:61 раз
Скачать  

25-09-2018 13:57 Большой куш Скачать торрент  

Большой куш / Snatch
Год выпуска: 2018
Страна: Великобритания
Жанр: Комедия, криминал
Продолжительность: ~ 00:43:00
Перевод: Профессиональное (многоголосый) | Jaskier
Субтитры: отсутствуют

Режиссер: Лоуренс Гоф, Николас Рентон, Джеффри Сакс

rating

В ролях:

Руперт Гринт, Люсьен Лависконт, Люк Паскуалино, Дугрей Скотт, Эд Вествик, Расс Бэйн, Клер Купер, Фиби Дайневор, Джо Херст

Описание:

Сюжет сосредоточится на группе молодых предприимчивых жуликов, наткнувшихся на грузовик, полный награбленного золота. Так герои оказываются втянутыми в мир элиты организованной преступности, где им придется на ходу учиться выживать, сталкиваясь с гангстерами, коррумпированными копами и боксерами-цыганами.

Качество: WEBRip
Формат: AVI

Видео: XviD, ~ 1350 Кбит/с, 720x400
Аудио#1: Русский (MP3, 2 ch, 128 Кбит/с)
Аудио#2: английский (MP3, 2 ch, 128 Кбит/с)
скриншот  скриншот  скриншот  

Общее
Полное имя : E:\Snatch. Season 2 (WEBRip l 400p l Jaskier)\Snatch.S02E01.WEBRip.Rus.Eng.Jaskier.avi
Формат : AVI
Формат/Информация : Audio Video Interleave
Размер файла : 501 Мбайт
Продолжительность : 43 м. 27 с.
Общий поток : 1611 Кбит/сек
Программа кодирования : VirtualDubMod 1.5.10.3 | www.virtualdub-fr.org || (build 2550/release)
Библиотека кодирования : VirtualDubMod build 2550/release

Видео
Идентификатор : 0
Формат : MPEG-4 Visual
Профиль формата : Advanced Simple@L5
Настройки формата : BVOP1 / Custom Matrix
Параметр BVOP формата : 1
Параметр QPel формата : Нет
Параметр GMC формата : Без точки перехода
Параметр матрицы формата : Выборочная
Идентификатор кодека : XVID
Идентификатор кодека/Подсказка : XviD
Продолжительность : 43 м. 27 с.
Битрейт : 1341 Кбит/сек
Ширина : 720 пикселей
Высота : 400 пикселей
Соотношение сторон : 16:9
Частота кадров : 23,976 (24000/1001) кадра/сек
Частота кадров в оригинале : 23,976 (23976/1000) кадра/сек
Цветовое пространство : YUV
Субдискретизация насыщенности : 4:2:0
Битовая глубина : 8 бит
Тип развёртки : Прогрессивная
Метод сжатия : С потерями
Бит/(Пиксели*Кадры) : 0.194
Размер потока : 417 Мбайт (83%)
Библиотека кодирования : XviD 73

Аудио #1
Идентификатор : 1
Формат : MPEG Audio
Версия формата : Version 1
Профиль формата : Layer 3
Настройки формата : Joint stereo / MS Stereo
Идентификатор кодека : 55
Идентификатор кодека/Подсказка : MP3
Продолжительность : 43 м. 27 с.
Вид битрейта : Постоянный
Битрейт : 128 Кбит/сек
Каналы : 2 канала
Частота : 48,0 КГц
Метод сжатия : С потерями
Размер потока : 39,8 Мбайт (8%)
Выравнивание : Соединение по промежуткам
Продолжительность промежутка : 42 мс. (1,00 видеокадр)
Время предзагрузки промежутка : 504 мс.

Аудио #2
Идентификатор : 2
Формат : MPEG Audio
Версия формата : Version 1
Профиль формата : Layer 3
Настройки формата : Joint stereo / MS Stereo
Идентификатор кодека : 55
Идентификатор кодека/Подсказка : MP3
Продолжительность : 43 м. 27 с.
Вид битрейта : Постоянный
Битрейт : 128 Кбит/сек
Каналы : 2 канала
Частота : 48,0 КГц
Метод сжатия : С потерями
Размер потока : 39,8 Мбайт (8%)
Выравнивание : Соединение по промежуткам
Продолжительность промежутка : 42 мс. (1,00 видеокадр)
Время предзагрузки промежутка : 504 мс.

pb.wtf



Скачать Большой куш через торрент http://img11.lostpic.net/2018/09/23/5c7d1218f152caa7974e73c4131f06e7.png Скачать фильм Большой куш через торрент бесплантно в хорошем качестве Описание: Сюжет сосредоточится на группе молодых предприимчивых жуликов, наткнувшихся на грузовик, полный награбленного золота. Так герои ... 10 10 3
Торрент: Зарегистрирован [2018-09-25 13:57] · скачан: 61 раз
Статус: √ проверено
Размер: 4.89 GB
Как cкачать? Как скачать Большой куш через торрент | qTorrent

% Раздел Тема Автор DL S | L
Зарубежные сериалы [ 550 MB ] Большой куш / Snatch / Сезон: 2 / Серии: 1 из 10 [2018 WEBRip] [MVO] killermax2013 Скачать
1 | 0
Зарубежные сериалы [ 7.52 GB ] Большой куш / Snatch / Сезон: 2 / Серии: 1-10 из 10 [2018 WEBRip 720p] MVO [Jaskier] bober100 Скачать
1 | 0
Зарубежные сериалы [ 12.43 GB ] Большой куш / Snatch / Сезон: 2 / Серии: 1-10 из 10 [2018 WEBRip 1080p] MVO [Jaskier] bober100 Скачать
1 | 0
Зарубежные сериалы [ 22.29 GB ] Большой куш / Snatch / Сезон: 2 / Серии: 1-10 из 10 [2018 WEB-DL 1080p] [MVO] killermax2013 Скачать
1 | 0
Зарубежные сериалы [ 3.91 GB ] Большой куш / Snatch / Сезон: 2 / Серии: 1-10 из 10 [2018 WEBRip] [DVO] killermax2013 Скачать
1 | 0
Зарубежные сериалы [ 5.88 GB ] Большой куш / Snatch / Сезон: 2 / Серии: 1-10 из 10 [2018 WEBRip] MVO [LostFilm] bober100 Скачать
1 | 0
Зарубежные сериалы [ 11.19 GB ] Большой куш / Snatch / Сезон: 2 / Серии: 1-10 из 10 [2018 WEBRip 720p] MVO [ColdFilm] bober100 Скачать
1 | 0

28-11-2019 20:33  

Отключить всю рекламу на сайте

    Дорогой пользователь! Огромная просьба, поблагодарите релизера, оцените раздачу и оставьте свои комментарий, если Вы скачали Большой куш через торрент бесплатно! Внесите свою лепту в развитие PiratBit!
    Комментировать посты могут только пользователи прошедшие не сложную регистрацию
    Показать сообщения:    

    Большой куш через торрент
    Скачать бесплатно Большой куш
    Большой куш скачать торрент
    Большой куш смотреть онлайн
    Cкачать фильм Большой куш бесплатно
    Большой куш скачать торрент в хорошем качестве
    Большой куш смотреть онлайн бесплатно в хорошем качестве


    Вы не можете начинать темы
    Вы не можете отвечать на сообщения
    Вы не можете редактировать свои сообщения
    Вы не можете удалять свои сообщения
    Вы не можете голосовать в опросах
    Вы не можете прикреплять файлы к сообщениям
    Вы можете скачивать файлы