Ссылка на приватное зеркало нашего сайта всего за 1$. Внимание количество ограничено!!!

2 сезон

iTunes

1 сезон

1

2 сезон

2 сезон

iTunes

1 сезон

RePack

30

Ultimate

ВАЖНО

ИГРА 18+

pack

RePack

MK11
pack

Забери бонус

RePack

jed

!!Акция!!

Alien_Rage

RePack

fifa19

RePack

Assassins Creed: Odyssey

RePack

NEED FOR SPEED™ PAYBACK

4 сезон

9 сезон

Бесстыжие 9 сезон

Все сериалы

все сериалы на PB.wtf

RePack

FAR CRY 5
  

Большой куш / Snatch / Сезон: 2 / Серии: 1-10 из 10 (Лоуренс Гоф, Николас Рентон, Джеффри Сакс) [2018, Комедия, криминал, WEBRip 720p] MVO [Jaskier] pb.wtf

Большой куш через торрент pb.wtf

Размер: 7.52 GB | Добавлен: 2 года 2 мес. назад | Торрент скачан:34 раза
Скачать  

25-09-2018 13:59 Большой куш Скачать торрент  

Большой куш / Snatch
Год выпуска: 2018
Страна: Великобритания
Жанр: Комедия, криминал
Продолжительность: ~ 00:43:00
Перевод: Профессиональное (многоголосый) | Jaskier
Субтитры: отсутствуют

Режиссер: Лоуренс Гоф, Николас Рентон, Джеффри Сакс

rating

В ролях:

Руперт Гринт, Люсьен Лависконт, Люк Паскуалино, Дугрей Скотт, Эд Вествик, Расс Бэйн, Клер Купер, Фиби Дайневор, Джо Херст

Описание:

Сюжет сосредоточится на группе молодых предприимчивых жуликов, наткнувшихся на грузовик, полный награбленного золота. Так герои оказываются втянутыми в мир элиты организованной преступности, где им придется на ходу учиться выживать, сталкиваясь с гангстерами, коррумпированными копами и боксерами-цыганами.

Качество: WEBRip 720p
Формат: MKV

Видео: MPEG-4 AVC, ~ 2400 Кбит/с, 1280x720
Аудио#1: Русский (AC3, 2 ch, 192 Кбит/с)
Аудио#2: английский (AC3, 2 ch, 192 Кбит/с)
скриншот  скриншот  скриншот  

Общее
Уникальный идентификатор : 234479553344518207349490759094234432021 (0xB0671E8B5096E658BC59C2BBC6D6C215)
Полное имя : E:\Snatch. Season 2 (WEBRip l 720p l Jaskier)\Snatch.S02E01.720p.WEBRip.x264-Jaskier.mkv
Формат : Matroska
Версия формата : Version 2
Размер файла : 834 Мбайт
Продолжительность : 43 м. 27 с.
Общий поток : 2682 Кбит/сек
Дата кодирования : UTC 2018-09-24 14:11:36
Программа кодирования : mkvmerge v7.8.0 ('River Man') 32bit built on Apr 3 2015 12:11:22
Библиотека кодирования : libebml v1.3.1 + libmatroska v1.4.2

Видео
Идентификатор : 1
Формат : AVC
Формат/Информация : Advanced Video Codec
Профиль формата : Main@L3.1
Настройки формата : CABAC / 2 Ref Frames
Параметр CABAC формата : Да
Параметр RefFrames формата : 2 кадра
Идентификатор кодека : V_MPEG4/ISO/AVC
Продолжительность : 43 м. 27 с.
Битрейт : 2244 Кбит/сек
Номинальный битрейт : 2372 Кбит/сек
Ширина : 1280 пикселей
Высота : 720 пикселей
Соотношение сторон : 16:9
Режим частоты кадров : Постоянный
Частота кадров : 23,976 (24000/1001) кадра/сек
Цветовое пространство : YUV
Субдискретизация насыщенности : 4:2:0
Битовая глубина : 8 бит
Тип развёртки : Прогрессивная
Бит/(Пиксели*Кадры) : 0.102
Размер потока : 698 Мбайт (84%)
Библиотека кодирования : x264 core 148 r2579M 73ae2d1
Настройки программы : cabac=1 / ref=2 / deblock=1:0:0 / analyse=0x1:0x111 / me=hex / subme=2 / psy=1 / psy_rd=1.00:0.00 / mixed_ref=0 / me_range=16 / chroma_me=1 / trellis=0 / 8x8dct=0 / cqm=0 / deadzone=21,11 / fast_pskip=1 / chroma_qp_offset=0 / threads=1 / lookahead_threads=1 / sliced_threads=0 / nr=250 / decimate=1 / interlaced=0 / bluray_compat=0 / stitchable=1 / constrained_intra=0 / bframes=0 / weightp=1 / keyint=250 / keyint_min=24 / scenecut=40 / intra_refresh=0 / rc_lookahead=10 / rc=2pass / mbtree=1 / bitrate=2372 / ratetol=1.0 / qcomp=0.60 / qpmin=5 / qpmax=69 / qpstep=4 / cplxblur=20.0 / qblur=0.5 / ip_ratio=1.40 / aq=1:1.00
Язык : English
Default : Да
Forced : Нет

Аудио #1
Идентификатор : 2
Формат : AC-3
Формат/Информация : Audio Coding 3
Идентификатор кодека : A_AC3
Продолжительность : 43 м. 27 с.
Вид битрейта : Постоянный
Битрейт : 192 Кбит/сек
Каналы : 2 канала
Расположение каналов : Front: L R
Частота : 48,0 КГц
Частота кадров : 31,250 кадров/сек (1536 SPF)
Битовая глубина : 16 бит
Метод сжатия : С потерями
Размер потока : 59,7 Мбайт (7%)
Заголовок : Jaskier
Язык : Russian
ServiceKind/String : Complete Main
Default : Да
Forced : Нет

Аудио #2
Идентификатор : 3
Формат : AC-3
Формат/Информация : Audio Coding 3
Идентификатор кодека : A_AC3
Продолжительность : 43 м. 27 с.
Вид битрейта : Постоянный
Битрейт : 192 Кбит/сек
Каналы : 2 канала
Расположение каналов : Front: L R
Частота : 48,0 КГц
Частота кадров : 31,250 кадров/сек (1536 SPF)
Битовая глубина : 16 бит
Метод сжатия : С потерями
Размер потока : 59,7 Мбайт (7%)
Язык : English
ServiceKind/String : Complete Main
Default : Нет
Forced : Нет

pb.wtf



Скачать Большой куш через торрент http://img11.lostpic.net/2018/09/23/5c7d1218f152caa7974e73c4131f06e7.png Скачать фильм Большой куш через торрент бесплантно в хорошем качестве Описание: Сюжет сосредоточится на группе молодых предприимчивых жуликов, наткнувшихся на грузовик, полный награбленного золота. Так герои ... 10 10 2
Торрент: Зарегистрирован [2018-09-25 13:59] · скачан: 34 раз
Статус: √ проверено
Размер: 7.52 GB
Как cкачать? Как скачать Большой куш через торрент | qTorrent

% Раздел Тема Автор DL S | L
Зарубежные сериалы [ 550 MB ] Большой куш / Snatch / Сезон: 2 / Серии: 1 из 10 [2018 WEBRip] [MVO] killermax2013 Скачать
1 | 0
Зарубежные сериалы [ 4.89 GB ] Большой куш / Snatch / Сезон: 2 / Серии: 1-10 из 10 [2018 WEBRip] MVO [Jaskier] bober100 Скачать
1 | 0
Зарубежные сериалы [ 12.43 GB ] Большой куш / Snatch / Сезон: 2 / Серии: 1-10 из 10 [2018 WEBRip 1080p] MVO [Jaskier] bober100 Скачать
1 | 0
Зарубежные сериалы [ 22.29 GB ] Большой куш / Snatch / Сезон: 2 / Серии: 1-10 из 10 [2018 WEB-DL 1080p] [MVO] killermax2013 Скачать
1 | 0
Зарубежные сериалы [ 3.91 GB ] Большой куш / Snatch / Сезон: 2 / Серии: 1-10 из 10 [2018 WEBRip] [DVO] killermax2013 Скачать
1 | 0
Зарубежные сериалы [ 5.88 GB ] Большой куш / Snatch / Сезон: 2 / Серии: 1-10 из 10 [2018 WEBRip] MVO [LostFilm] bober100 Скачать
1 | 0
Зарубежные сериалы [ 11.19 GB ] Большой куш / Snatch / Сезон: 2 / Серии: 1-10 из 10 [2018 WEBRip 720p] MVO [ColdFilm] bober100 Скачать
1 | 0

28-11-2019 20:33  

Отключить всю рекламу на сайте

    Дорогой пользователь! Огромная просьба, поблагодарите релизера, оцените раздачу и оставьте свои комментарий, если Вы скачали Большой куш через торрент бесплатно! Внесите свою лепту в развитие PiratBit!
    Комментировать посты могут только пользователи прошедшие не сложную регистрацию
    Показать сообщения:    

    Большой куш через торрент
    Скачать бесплатно Большой куш
    Большой куш скачать торрент
    Большой куш смотреть онлайн
    Cкачать фильм Большой куш бесплатно
    Большой куш скачать торрент в хорошем качестве
    Большой куш смотреть онлайн бесплатно в хорошем качестве


    Вы не можете начинать темы
    Вы не можете отвечать на сообщения
    Вы не можете редактировать свои сообщения
    Вы не можете удалять свои сообщения
    Вы не можете голосовать в опросах
    Вы не можете прикреплять файлы к сообщениям
    Вы можете скачивать файлы