2 сезон

iTunes

MVO

1

2 сезон

iTunes

iTunes

1 сезон

RePack

30

Новинка

ВАЖНО

ИГРА 18+

pack

RePack

MK11
pack

Легкие деньги

RePack

jed

RePack

fifa19

RePack

RDR2

RePack

NEED FOR SPEED™ PAYBACK

4 сезон

9 сезон

Бесстыжие 9 сезон

Все сериалы

все сериалы на PB.wtf

RePack

FAR CRY 5

Anonymous, добрый день, мы не успеваем собрать деньги на оплату серверов за декабрь и январь, помогите нам пожалуйста в это трудное время. В качестве благодарности мы отключим Вам всю рекламу на сайте (укажите свой ник в строку Ваше имя)!

×
  
Magnet ссылка

Закон о детях / The Children Act (Ричард Эйр) [2017, Драма, WEB-DLRip] MVO [HDrezka Studio] pb.wtf

Закон о детях через торрент pb.wtf

Размер: 1.46 GB | Добавлен: 2 года 3 мес. назад | Торрент скачан:93 раза
Скачать  

25-09-2018 14:27 Закон о детях Скачать торрент  

Закон о детях / The Children Act
Год выпуска: 2017
Страна: Великобритания
Жанр: Драма
Продолжительность: 01:45:43
Перевод: Профессиональный (многоголосый) | HDrezka Studio
Субтитры: отсутствуют

Режиссер: Ричард Эйр

rating

В ролях:

Эмма Томпсон, Стэнли Туччи, Финн Уайтхед, Бен Чаплин, Рози Кавальеро, Джейсон Уоткинс, Никки Амука-Бёрд, Энтони Калф

Описание:

Судья Фиона Мэй, специализирующаяся на семейных делах, сталкивается с непростой дилеммой: Адам, которого от совершеннолетия отделяют всего три месяца жизни, по религиозным соображениям отказывается от переливания крови. Сможет ли Фиона заставить молодого человека жить против его воли..?

Качество: WEB-DLRip
Формат: AVI

Видео: 720x384 (1.85:1), 23.976 fps, XviD ~1 787 kbps avg
Аудио: 48.0 kHz, AC3 Dolby Digital, 2/0 (L,R) ch, ~192 kbps
скриншот  скриншот  скриншот  скриншот  

General
Format : AVI
Format/Info : Audio Video Interleave
File size : 1.46 GiB
Duration : 1 h 45 min
Overall bit rate : 1 973 kb/s
Writing application : VirtualDubMod 1.5.10.3 | (build 2550/release)
Writing library : VirtualDubMod build 2550/release

Video
ID : 0
Format : MPEG-4 Visual
Format profile : Advanced Simple@L5
Format settings, BVOP : 2
Format settings, QPel : No
Format settings, GMC : No warppoints
Format settings, Matrix : Custom
Codec ID : XVID
Codec ID/Hint : XviD
Duration : 1 h 45 min
Source duration : 1 h 0 min
Bit rate : 1 787 kb/s
Width : 720 pixels
Height : 384 pixels
Display aspect ratio : 1.85:1
Frame rate : 23.976 (24000/1001) FPS
Original frame rate : 23.976 (23976/1000) FPS
Color space : YUV
Chroma subsampling : 4:2:0
Bit depth : 8 bits
Scan type : Progressive
Compression mode : Lossy
Bits/(Pixel*Frame) : 0.270
Stream size : 769 MiB (52%)
Writing library : XviD 1.2.1 (UTC 2008-12-04)

Audio
ID : 1
Format : AC-3
Format/Info : Audio Coding 3
Format settings, Endianness : Big
Codec ID : 2000
Duration : 1 h 45 min
Source duration : 1 h 0 min
Bit rate mode : Constant
Bit rate : 192 kb/s
Channel(s) : 2 channels
Channel positions : Front: L R
Sampling rate : 48.0 kHz
Frame rate : 31.250 FPS (1536 SPF)
Bit depth : 16 bits
Compression mode : Lossy
Stream size : 82.6 MiB (6%)
Alignment : Split accross interleaves
Interleave, duration : 42 ms (1.00 video frame)
Interleave, preload duration : 500 ms
Service kind : Complete Main
pb.wtf



Скачать Закон о детях через торрент http://b.radikal.ru/b33/1809/b6/e5648eb9ebdd.png Скачать фильм Закон о детях через торрент бесплантно в хорошем качестве Описание: Судья Фиона Мэй, специализирующаяся на семейных делах, сталкивается с непростой дилеммой: Адам, которого от совершеннолетия ... 7.8 10 4
Торрент: Зарегистрирован [2018-09-25 14:27] · скачан: 93 раз
Статус: T временная
Размер: 1.46 GB
Как cкачать? Как скачать Закон о детях через торрент | UTorrent

% Раздел Тема Автор DL S | L
Фильмы 2017 [DVDrip, WEB-DLRip, HDrip] (DUB, MVO) [ 2.84 GB ] Закон о детях / Удивительная миссис Мэй / The Children Act [2017 BDRip-AVC] 2xMVO [ HDRezka Studio] bober100 Скачать
1 | 0
Фильмы 2017 [DVDrip, WEB-DLRip, HDrip] (DUB, MVO) [ 1.41 GB ] Закон о детях / Удивительная миссис Мэй / The Children Act [2017 BDRip-AVC] MVO bober100 Скачать
1 | 0
Фильмы 2017 [DVDrip, WEB-DLRip, HDrip] (DUB, MVO) [ 1.46 GB ] Закон о детях / Удивительная миссис Мэй / The Children Act [2017 BDRip] MVO bober100 Скачать
1 | 0
T Фильмы (WEB-DL 720p, 1080p) [ 4.27 GB ] Закон о детях / The Children Act [2017 WEB-DL 1080p] MVO [HDrezka Studio] bober100 Скачать
1 | 0

28-11-2019 20:33  

Отключить всю рекламу на сайте


    Дорогой пользователь! Огромная просьба, поблагодарите релизера, оцените раздачу и оставьте свои комментарий, если Вы скачали Закон о детях через торрент бесплатно! Внесите свою лепту в развитие PiratBit!
    Комментировать посты могут только пользователи прошедшие не сложную регистрацию
    Показать сообщения:    

    Закон о детях через торрент
    Скачать бесплатно Закон о детях
    Закон о детях скачать торрент
    Закон о детях смотреть онлайн
    Cкачать фильм Закон о детях бесплатно
    Закон о детях скачать торрент в хорошем качестве
    Закон о детях смотреть онлайн бесплатно в хорошем качестве


    Вы не можете начинать темы
    Вы не можете отвечать на сообщения
    Вы не можете редактировать свои сообщения
    Вы не можете удалять свои сообщения
    Вы не можете голосовать в опросах
    Вы не можете прикреплять файлы к сообщениям
    Вы можете скачивать файлы