Marvel's Avengers Deluxe Edition (супер цена) 159р. Внимание количество ограничено!!!

2 сезон

iTunes

iTunes

1

iTunes

iTunes

iTunes

WEBRip

iTunes

30
pack

Новость дня

ВАЖНО

!!Акция!!

Alien_RageХит недели

RePack

Horizon Zero Dawn

ИГРА 18+

pack

RePack

jed

!!Акция!!

Alien_Rage

RePack

fifa19

RePack

Assassins Creed: Odyssey

RePack

NEED FOR SPEED™ PAYBACK

4 сезон

9 сезон

Бесстыжие 9 сезон

Все сериалы

все сериалы на PB.wtf

RePack

FAR CRY 5
  

Пять пальцев для Марселя / Five Fingers for Marseilles (Майкл Мэтьюз / Michael Matthews) [2017, триллер, вестерн, вестерн, WEBRip-AVC] [DVO] (datynet & Galina Vasyukova) pb.wtf

Пять пальцев для Марселя через торрент pb.wtf

Размер: 1.4 GB | Добавлен: 1 год 11 мес. назад | Торрент скачан:123 раза
Скачать  

25-09-2018 15:05 Пять пальцев для Марселя Скачать торрент  

Пять пальцев для Марселя / Five Fingers for Marseilles Страна: ЮАР
Жанр: триллер, вестерн, вестерн
Год выпуска: 2017
Продолжительность: 01:58:36

Перевод: Любительский (двухголосый закадровый) datynet & Galina Vasyukova;перевод: Куценко
Субтитры: нет

Режиссер: Майкл Мэтьюз / Michael Matthews

В ролях: Кеннет Фок, Гарт Брейтенбах, Энтони Осейеми, Кеннет Нкоси, Брендон Дэниелс, Вуйо Дабула, Джерри Мофокенг, Мдудузи Мабасо, Лизви Вилакази, Дин Фури, Гамильтон Дхламини, Чету Дломо.

Описание: Это режиссерский дебют Майкла Мэтьюза, перенесшего действие своего фильма в Южную Африку. Место, где все пропитано жестокостью, где даже власти ведут себя как преступники по отношению к простым людям. По сюжету молодой парень по прозвищу “Пять пальцев” убивает коррумпированных полицейских в небольшом городке Марсель, после чего скрывается. Вернувшись в родной город спустя двадцать лет он ищет мирной жизни, но новая угроза нависла над городом. Для защиты он должен снова взять в руки оружие и вспомнить свое прошлое.

Доп. информация: 2 номинация:
Cleveland International Film Festival 2018
World Cinema Amsterdam 2018




Сэмпл: http://multi-up.com/1209857

Качество видео: WEBRip-AVC
Формат видео: MKV
Видео: 1152x648 (16:9), 23.976 fps, MPEG4 Video (H264) Main@L3.1 ~ 1 460 kbps avg, 0.082 bit/ pixel
Аудио: 48 kHz, MPEG Layer 3, 2 ch, ~ 192 kbps avg
Format : Matroska
Format version : Version 2
File size : 1.40 GiB
Duration : 1 h 58 min
Overall bit rate mode : Variable
Overall bit rate : 1 686 kb/s
Encoded date : UTC 2018-09-24 22:28:52 / UTC 2018-09-24 22:28:52
Writing application : Lavf54.63.104
Writing library : Lavf54.63.104

Video
ID : 1
Format : AVC
Format/Info : Advanced Video Codec
Format profile : Main@L3.1
Format settings, CABAC : Yes
Format settings, RefFrames : 1 frame
Codec ID : V_MPEG4/ISO/AVC
Duration : 1 h 58 min
Bit rate : 1 460 kb/s
Width : 1 152 pixels
Height : 648 pixels
Display aspect ratio : 16:9
Frame rate mode : Constant
Frame rate : 23.976 (24000/1001) FPS
Color space : YUV
Chroma subsampling : 4:2:0
Bit depth : 8 bits
Scan type : Progressive
Bits/(Pixel*Frame) : 0.082
Stream size : 1.21 GiB (87%)
Default : Yes
Forced : No

Audio
ID : 2
Format : MPEG Audio
Format version : Version 1
Format profile : Layer 3
Mode : Joint stereo
Mode extension : MS Stereo
Codec ID : A_MPEG/L3
Codec ID/Hint : MP3
Duration : 1 h 58 min
Bit rate mode : Constant
Bit rate : 192 kb/s
Channel(s) : 2 channels
Sampling rate : 48.0 kHz
Compression mode : Lossy
Stream size : 163 MiB (11%)
Writing library : LAME3.99.5
Default : Yes
Forced : No
скриншот  скриншот  скриншот  
pb.wtf



Скачать Пять пальцев для Марселя через торрент https://d.radikal.ru/d33/1809/21/35eedbf372f9.jpg Скачать фильм Пять пальцев для Марселя через торрент бесплантно в хорошем качестве Описание: Это режиссерский дебют Майкла Мэтьюза, перенесшего действие своего фильма в Южную Африку. Место, где все пропитано жестокостью, ... 9.3 10 7
Торрент: Зарегистрирован [2018-09-25 15:05] · скачан: 123 раз
Статус: T временная
Размер: 1.4 GB
Как cкачать? Как скачать Пять пальцев для Марселя через торрент | qTorrent

28-11-2019 20:33  

Отключить всю рекламу на сайте

25-09-2018 23:52 Пять пальцев для Марселя Скачать торрент  

по описанию больше на Россию похоже, ток вместо молодого парня представляется нищий старик с берданкой.pb.wtf



    Дорогой пользователь! Огромная просьба, поблагодарите релизера, оцените раздачу и оставьте свои комментарий, если Вы скачали Пять пальцев для Марселя через торрент бесплатно! Внесите свою лепту в развитие PiratBit!
    Комментировать посты могут только пользователи прошедшие не сложную регистрацию
    Показать сообщения:    

    Пять пальцев для Марселя через торрент
    Скачать бесплатно Пять пальцев для Марселя
    Пять пальцев для Марселя скачать торрент
    Пять пальцев для Марселя смотреть онлайн
    Cкачать фильм Пять пальцев для Марселя бесплатно
    Пять пальцев для Марселя скачать торрент в хорошем качестве
    Пять пальцев для Марселя смотреть онлайн бесплатно в хорошем качестве


    Вы не можете начинать темы
    Вы не можете отвечать на сообщения
    Вы не можете редактировать свои сообщения
    Вы не можете удалять свои сообщения
    Вы не можете голосовать в опросах
    Вы не можете прикреплять файлы к сообщениям
    Вы можете скачивать файлы