Ссылка на приватное зеркало всего за 1$. Внимание количество ограничено!!!

OK

1+1

iTunes

мы

OK

1

WEB-DLRip

Джокер

Пифагор

Ведьмак / The Witcher сериал

iTunes

ПШазам

ОК

Оно 2

iTunes

30
pack

Вам бонус

ВАЖНО

!!Акция!!

Alien_RageХит недели

RePack

Resident Evil 21

ИГРА 18+

pack

RePack

jed

RePack

fifa19

RePack

Assassins Creed: Odyssey

RePack

NEED FOR SPEED™ PAYBACK

4 сезон

9 сезон

Бесстыжие 9 сезон

Все сериалы

все сериалы на PB.wtf

RePack

FAR CRY 5
  

Оно обитает внутри / It Lives Inside (Шон Бингам, Джефф Холл) [2018 г., триллер, WEB-DLRip] Любительский многоголосый ["Синема УС"] pb.wtf

Оно обитает внутри через торрент pb.wtf

Размер: 1.37 GB | Добавлен: 1 год 4 мес. назад | Торрент скачан:30 раз
Скачать  

25-09-2018 21:15 Оно обитает внутри Скачать торрент  

Оно обитает внутри / It Lives Inside
Год выпуска: 2018

Страна: США

Жанр: Триллер

Продолжительность: 01:32:41

Перевод: Любительский многоголосый ["Синема УС"]

Режиссер: Шон Бингам, Джефф Холл

rating

В ролях: Лори Каммингс, Алисса Форд, Лиам Роуз, Ретт Террелл

Описание: Хронический сомнамбула находит в новом доме мистический том, где говорится, что его обладателю суждено быть поглощённым демоном. Через какое-то время, он начинает видеть в доме странные тени, а вокруг дома разворачиваются загадочные события.

Качество: WEB-DLRip
Формат: AVI
Видео кодек: XviD
Аудио кодек: AC3
Видео: XviD, 1718 Кбит/с, 720x400
Аудио: Русский, AC3, 2 ch, 384 Кбит/с

Видео
Идентификатор : 0
Формат : MPEG-4 Visual
Профиль формата : Advanced Simple@L5
Настройки формата : BVOP2 / Custom Matrix
Параметр BVOP формата : 2
Параметр QPel формата : Нет
Параметр GMC формата : Без точки перехода
Параметр матрицы формата : Выборочная
Идентификатор кодека : XVID
Идентификатор кодека/Подсказка : XviD
Продолжительность : 1 ч. 32 м.
Битрейт : 1718 Кбит/сек
Ширина : 720 пикселей
Высота : 400 пикселей
Соотношение сторон : 16:9
Частота кадров : 23,976 (24000/1001) кадра/сек
Цветовое пространство : YUV
Субдискретизация насыщенности : 4:2:0
Битовая глубина : 8 бит
Тип развёртки : Прогрессивная
Метод сжатия : С потерями
Бит/(Пиксели*Кадры) : 0.249
Размер потока : 1,11 Гбайт (81%)
Библиотека кодирования : XviD 1.2.1 (UTC 2008-12-04)

Аудио
Идентификатор : 1
Формат : AC-3
Формат/Информация : Audio Coding 3
Идентификатор кодека : 2000
Продолжительность : 1 ч. 32 м.
Вид битрейта : Постоянный
Битрейт : 384 Кбит/сек
Каналы : 2 канала
Расположение каналов : Front: L R
Частота : 48,0 КГц
Частота кадров : 31,250 кадров/сек (1536 SPF)
Битовая глубина : 16 бит
Метод сжатия : С потерями
Размер потока : 255 Мбайт (18%)
Выравнивание : Разделение по промежуткам
Продолжительность промежутка : 42 мс. (1,00 видеокадр)
Время предзагрузки промежутка : 500 мс.
ServiceKind/String : Complete Main

скриншот   скриншот   скриншот   скриншот   скриншот   скриншот  

Присутствуют вставки голосовой и текстовой рекламы!pb.wtf



Скачать Оно обитает внутри через торрент http://pic1.kartinco.top/images/11/8inzu.jpg Скачать фильм Оно обитает внутри через торрент бесплантно в хорошем качестве Описание: Хронический сомнамбула находит в новом доме мистический том, где говорится, что его обладателю суждено быть поглощённым демоном. ... 10 10 2
Торрент: Зарегистрирован [2018-09-25 21:15] · скачан: 30 раз
Статус: T временная
Размер: 1.37 GB
Как cкачать? Как скачать Оно обитает внутри через торрент | qTorrent

% Раздел Тема Автор DL S | L
T Фильмы (мультфильмы) cо спонсором показа (Новинки AVI/MKV) [ 3.07 GB ] Оно обитает внутри / It Lives Inside [2018 WEB-DL 720p] MVO ["Синема УС"] bober100 Скачать
1 | 0

28-11-2019 20:33  

Отключить всю рекламу на сайте

26-09-2018 02:38 Оно обитает внутри Скачать торрент  

    Дорогой пользователь! Огромная просьба, поблагодарите релизера, оцените раздачу и оставьте свои комментарий, если Вы скачали Оно обитает внутри через торрент бесплатно! Внесите свою лепту в развитие PiratBit!
    Комментировать посты могут только пользователи прошедшие не сложную регистрацию
    Показать сообщения:    

    Оно обитает внутри через торрент
    Скачать бесплатно Оно обитает внутри
    Оно обитает внутри скачать торрент
    Оно обитает внутри смотреть онлайн
    Cкачать фильм Оно обитает внутри бесплатно
    Оно обитает внутри скачать торрент в хорошем качестве
    Оно обитает внутри смотреть онлайн бесплатно в хорошем качестве


    Вы не можете начинать темы
    Вы не можете отвечать на сообщения
    Вы не можете редактировать свои сообщения
    Вы не можете удалять свои сообщения
    Вы не можете голосовать в опросах
    Вы не можете прикреплять файлы к сообщениям
    Вы можете скачивать файлы