Ссылка на приватное зеркало всего за 1$. Внимание количество ограничено!!!

OK

1+1

iTunes

мы

OK

1

WEB-DLRip

Джокер

Пифагор

Ведьмак / The Witcher сериал

Лицензия

ПШазам

ОК

Оно 2

iTunes

30
pack

Вам бонус

ВАЖНО

!!Акция!!

Alien_RageХит недели

RePack

Resident Evil 21

ИГРА 18+

pack

RePack

jed

!!Акция!!

Alien_Rage

RePack

fifa19

RePack

Assassins Creed: Odyssey

RePack

NEED FOR SPEED™ PAYBACK

4 сезон

9 сезон

Бесстыжие 9 сезон

Все сериалы

все сериалы на PB.wtf

RePack

FAR CRY 5
  

ООО «Дом Ада» 2: Отель города Абаддон / Hell House LLC II: The Abaddon Hotel (Стивен Когнетти) [2018, Ужасы, WEB-DL 720p] MVO ["Синема УС"] pb.wtf

ООО «Дом Ада» 2: Отель города Абаддон через торрент pb.wtf

Размер: 2.94 GB | Добавлен: 1 год 3 мес. назад | Торрент скачан:47 раз
Скачать  

26-09-2018 08:13 ООО «Дом Ада» 2: Отель города Абаддон Скачать торрент  

ООО «Дом Ада» 2: Отель города Абаддон / Hell House LLC II: The Abaddon Hotel Год выпуска: 2018
Страна: США
Жанр: Ужасы
Продолжительность: 01:32:25
Перевод: Любительский (многоголосый) | "Синема УС"
Субтитры: отсутствуют

Режиссер: Стивен Когнетти

rating

В ролях:

Василе Флютур, Джиллиан Гюртс, Радость Шац, Дастин Остин, Брайан Дэвид Трейси, Кайл Инглман, Аманда Моралес, Лаура Френзер, Дэнни Беллини, Том Сибли

Описание:

Прошло восемь лет после трагедии на ночь открытия ООО «Дом Ада», но в воздухе до сих пор зависли множество вопросов без ответов. Благодаря анонимной наводке, журналистка Джессика Фокс убеждена, что ключевые доказательства спрятаны в заброшенном отеле Абаддон - доказательства, которые прольют свет на тайны отеля. Собравшаяся команда из таких же голодных до истины людей отправляется туда с одной целью: пробраться внутрь и раскрыть правду.

Качество: WEB-DL 720p
Формат: MKV

Видео: h.264, 4 172 kb/s, 1280x720
Аудио#1: Русский, (AC3, 2 ch, 384 Кбит/с)
скриншот  скриншот  скриншот  

Общее
Уникальный идентификатор : 244937269130810568505007963571415927374 (0xB84533BD9511AEBB84BB9B0B16A7CA4E)
Полное имя : E:\торреннты\Hell.House.LLC.II.The.Abaddon.Hotel.2018.P.WEB-DL.72Op_KOSHARA.mkv
Формат : Matroska
Версия формата : Version 2
Размер файла : 2,94 Гбайт
Продолжительность : 1 ч. 32 м.
Режим общего битрейта : Переменный
Общий поток : 4558 Кбит/сек
Дата кодирования : UTC 2018-09-25 21:21:15
Программа кодирования : mkvmerge v8.3.0 ('Over the Horizon') 64bit
Библиотека кодирования : libebml v1.3.1 + libmatroska v1.4.2

Видео
Идентификатор : 1
Формат : AVC
Формат/Информация : Advanced Video Codec
Профиль формата : High@L4.1
Настройки формата : CABAC / 4 Ref Frames
Параметр CABAC формата : Да
Параметр RefFrames формата : 4 кадра
Идентификатор кодека : V_MPEG4/ISO/AVC
Продолжительность : 1 ч. 32 м.
Вид битрейта : Переменный
Битрейт : 4172 Кбит/сек
Максимальный битрейт : 5000 Кбит/сек
Ширина : 1280 пикселей
Высота : 720 пикселей
Соотношение сторон : 16:9
Режим частоты кадров : Постоянный
Частота кадров : 23,976 (24000/1001) кадра/сек
Стандарт вещания : Component
Цветовое пространство : YUV
Субдискретизация насыщенности : 4:2:0
Битовая глубина : 8 бит
Тип развёртки : Прогрессивная
Бит/(Пиксели*Кадры) : 0.185
Размер потока : 2,64 Гбайт (90%)
Default : Да
Forced : Нет
Цветовой диапазон : Limited
Основные цвета : BT.709
Характеристики трансфера : BT.709
Коэффициенты матрицы : BT.709

Аудио
Идентификатор : 2
Формат : AC-3
Формат/Информация : Audio Coding 3
Идентификатор кодека : A_AC3
Продолжительность : 1 ч. 32 м.
Вид битрейта : Постоянный
Битрейт : 384 Кбит/сек
Каналы : 2 канала
Расположение каналов : Front: L R
Частота : 48,0 КГц
Частота кадров : 31,250 кадров/сек (1536 SPF)
Битовая глубина : 16 бит
Метод сжатия : С потерями
Размер потока : 254 Мбайт (8%)
ServiceKind/String : Complete Main
Default : Да
Forced : Нет

pb.wtf



Скачать ООО «Дом Ада» 2: Отель города Абаддон через торрент http://img11.lostpic.net/2018/09/26/7151d1925ce6f8fedf5af266be3bd27f.jpg Скачать фильм ООО «Дом Ада» 2: Отель города Абаддон через торрент бесплантно в хорошем качестве Описание: Прошло восемь лет после трагедии на ночь открытия ООО «Дом Ада», но в воздухе до сих пор зависли множество вопросов без ответов. ... 10 10 5
Торрент: Зарегистрирован [2018-09-26 08:13] · скачан: 47 раз
Статус: T временная
Размер: 2.94 GB
Как cкачать? Как скачать ООО «Дом Ада» 2: Отель города Абаддон через торрент | qTorrent

% Раздел Тема Автор DL S | L
T Фильмы (мультфильмы) cо спонсором показа (Новинки AVI/MKV) [ 1.37 GB ] ООО «Дом Ада» 2: Отель города Абаддон / Hell House LLC II: The Abaddon Hotel [2018 WEB-DLRip] MVO ["Синема УС"] bober100 Скачать
1 | 0

28-11-2019 20:33  

Отключить всю рекламу на сайте

26-09-2018 13:16 ООО «Дом Ада» 2: Отель города Абаддон Скачать торрент  

Бегло прочитал на главной название. Подумал сперва, ..ть, и сюда дом 2 докатился. А тут вон оно что...pb.wtf



    Дорогой пользователь! Огромная просьба, поблагодарите релизера, оцените раздачу и оставьте свои комментарий, если Вы скачали ООО «Дом Ада» 2: Отель города Абаддон через торрент бесплатно! Внесите свою лепту в развитие PiratBit!
    Комментировать посты могут только пользователи прошедшие не сложную регистрацию
    Показать сообщения:    

    ООО «Дом Ада» 2: Отель города Абаддон через торрент
    Скачать бесплатно ООО «Дом Ада» 2: Отель города Абаддон
    ООО «Дом Ада» 2: Отель города Абаддон скачать торрент
    ООО «Дом Ада» 2: Отель города Абаддон смотреть онлайн
    Cкачать фильм ООО «Дом Ада» 2: Отель города Абаддон бесплатно
    ООО «Дом Ада» 2: Отель города Абаддон скачать торрент в хорошем качестве
    ООО «Дом Ада» 2: Отель города Абаддон смотреть онлайн бесплатно в хорошем качестве


    Вы не можете начинать темы
    Вы не можете отвечать на сообщения
    Вы не можете редактировать свои сообщения
    Вы не можете удалять свои сообщения
    Вы не можете голосовать в опросах
    Вы не можете прикреплять файлы к сообщениям
    Вы можете скачивать файлы