Ссылка на приватное зеркало всего за 1$. Внимание количество ограничено!!!

iTunes

iTunes

iTunes

1

iTunes

iTunes

iTunes

WEBRip

iTunes

30
pack

$ от Little Big

ВАЖНО

!!Акция!!

Alien_RageХит недели

RePack

Resident Evil 21

ИГРА 18+

pack

RePack

jed

!!Акция!!

Alien_Rage

RePack

fifa19

RePack

Assassins Creed: Odyssey

RePack

NEED FOR SPEED™ PAYBACK

4 сезон

9 сезон

Бесстыжие 9 сезон

Все сериалы

все сериалы на PB.wtf

RePack

FAR CRY 5
  

Американский Пижон / American Dresser (Кармин Каньялоси) [2018, Драма, приключения, WEB-DL 720p] MVO ["Синема УС"] pb.wtf

Американский Пижон через торрент pb.wtf

Размер: 3.71 GB | Добавлен: 1 год 10 мес. назад | Торрент скачан:22 раза
Скачать  

26-09-2018 08:28 Американский Пижон Скачать торрент  

Американский Пижон / American DresserГод выпуска: 2018
Страна: США
Жанр: Драма, приключения
Продолжительность: 01:40:12
Перевод: Любительский (многоголосый) | "Синема УС"
Субтитры: отсутствуют

Режиссер: Кармин Каньялоси

rating

В ролях:

Джина Гершон, Пенелопа Энн Миллер, Том Беренджер, Кит Дэвид, Джефф Фэйи, Брюс Дерн, Кэтрин Нардуччи, Эндрю Бринярски, Бекки О’Донахью, Эль МакЛемор

Описание:

Джек недавно овдовел. Наполненный сожалениями он отправляется в поездку на своем мотоцикле через всю страну, чтобы встретиться лицом к лицу с ошибками прошлого, но с каждой милей, для него становится все более очевидным, что жизнь продолжается.

Качество: WEB-DL 720p
Формат: MKV

Видео: h.264, 4 916 kb/s, 1280x536
Аудио#1: Русский, (AC3, 2 ch, 384 Кбит/с)
скриншот  скриншот  скриншот  

Общее
Уникальный идентификатор : 240032691549456446170707046381773853699 (0xB4949D6569D7552C9594BA663C831403)
Полное имя : E:\торреннты\American.Dresser.2018.P.WEB-DL.72Op_KOSHARA.mkv
Формат : Matroska
Версия формата : Version 2
Размер файла : 3,71 Гбайт
Продолжительность : 1 ч. 40 м.
Режим общего битрейта : Переменный
Общий поток : 5301 Кбит/сек
Дата кодирования : UTC 2018-09-25 21:41:59
Программа кодирования : mkvmerge v8.3.0 ('Over the Horizon') 64bit
Библиотека кодирования : libebml v1.3.1 + libmatroska v1.4.2

Видео
Идентификатор : 1
Формат : AVC
Формат/Информация : Advanced Video Codec
Профиль формата : High@L4.1
Настройки формата : CABAC / 4 Ref Frames
Параметр CABAC формата : Да
Параметр RefFrames формата : 4 кадра
Идентификатор кодека : V_MPEG4/ISO/AVC
Продолжительность : 1 ч. 40 м.
Вид битрейта : Переменный
Битрейт : 4916 Кбит/сек
Максимальный битрейт : 5500 Кбит/сек
Ширина : 1280 пикселей
Высота : 536 пикселей
Соотношение сторон : 2,40:1
Режим частоты кадров : Постоянный
Частота кадров : 23,976 (24000/1001) кадра/сек
Стандарт вещания : Component
Цветовое пространство : YUV
Субдискретизация насыщенности : 4:2:0
Битовая глубина : 8 бит
Тип развёртки : Прогрессивная
Бит/(Пиксели*Кадры) : 0.293
Размер потока : 3,37 Гбайт (91%)
Default : Да
Forced : Нет
Цветовой диапазон : Limited
Основные цвета : BT.709
Характеристики трансфера : BT.709
Коэффициенты матрицы : BT.709

Аудио
Идентификатор : 2
Формат : AC-3
Формат/Информация : Audio Coding 3
Идентификатор кодека : A_AC3
Продолжительность : 1 ч. 40 м.
Вид битрейта : Постоянный
Битрейт : 384 Кбит/сек
Каналы : 2 канала
Расположение каналов : Front: L R
Частота : 48,0 КГц
Частота кадров : 31,250 кадров/сек (1536 SPF)
Битовая глубина : 16 бит
Метод сжатия : С потерями
Размер потока : 275 Мбайт (7%)
ServiceKind/String : Complete Main
Default : Да
Forced : Нет

pb.wtf



Скачать Американский Пижон через торрент http://img11.lostpic.net/2018/09/26/da10bbb8248cdd504e72732a004b4413.jpg Скачать фильм Американский Пижон через торрент бесплантно в хорошем качестве Описание: Джек недавно овдовел. Наполненный сожалениями он отправляется в поездку на своем мотоцикле через всю страну, чтобы встретиться ... 10 10 2
Торрент: Зарегистрирован [2018-09-26 08:28] · скачан: 22 раз
Статус: T временная
Размер: 3.71 GB
Как cкачать? Как скачать Американский Пижон через торрент | qTorrent

% Раздел Тема Автор DL S | L
T Фильмы [HD 720p, 1080p] (Хороший звук DUB, MVO) [ 9.67 GB ] Американский Пижон / American Dresser [2018 BDRip 1080p] MVO [HDrezka Studio] bober100 Скачать
1 | 0

28-11-2019 20:33  

Отключить всю рекламу на сайте

    Дорогой пользователь! Огромная просьба, поблагодарите релизера, оцените раздачу и оставьте свои комментарий, если Вы скачали Американский Пижон через торрент бесплатно! Внесите свою лепту в развитие PiratBit!
    Комментировать посты могут только пользователи прошедшие не сложную регистрацию
    Показать сообщения:    

    Американский Пижон через торрент
    Скачать бесплатно Американский Пижон
    Американский Пижон скачать торрент
    Американский Пижон смотреть онлайн
    Cкачать фильм Американский Пижон бесплатно
    Американский Пижон скачать торрент в хорошем качестве
    Американский Пижон смотреть онлайн бесплатно в хорошем качестве


    Вы не можете начинать темы
    Вы не можете отвечать на сообщения
    Вы не можете редактировать свои сообщения
    Вы не можете удалять свои сообщения
    Вы не можете голосовать в опросах
    Вы не можете прикреплять файлы к сообщениям
    Вы можете скачивать файлы