новый адрес
Мега распродажа FORZA HORIZON 4 ULTIMATE+ВСЕ DLC+ОНЛАЙН всего за 499р. 349 руб. (супер цена). Внимание количество ограничено!!!

iTunes

1+1

iTunes

мы

iTunes

1

iTunes

Чернобыль

iTunes

Ральф против интернета

Лицензия

ПШазам

Лицензия

Игра престолов

Лицензия

30
pack

ВАЖНО

!!Акция!!

Alien_RageХит недели

RePack

Resident Evil 21

ИГРА 18+

pack

RePack

Metro:Exodus

!!Акция!!

Alien_Rage

RePack

fifa19

RePack

Assassins Creed: Odyssey

RePack

NEED FOR SPEED™ PAYBACK

3 сезон

9 сезон

Бесстыжие 9 сезон

Все сериалы

все сериалы на PB.wtf

RePack

FAR CRY 5
Ребята, катастрофически не хватает 1900р. для оплаты серверов за Октябрь (всвязи с блокировками трафик упал в 3 раза), 1-2р., выручайте.
  

Братья Комаровы (Анатолий Вехотко) [1961, СССР, детский, семейный, DVDRip от AVP Studio] pb.wtf

Братья Комаровы через торрент pb.wtf

Раздают: 1 [ 0 KB/s ]
Размер: 742 MB | Добавлен: 1 год 1 мес. назад | Торрент скачан:16 раз
Скачать  

26-09-2018 08:42 Братья Комаровы Скачать торрент  

Братья Комаровы
Страна: СССР
Производство: Ленфильм

Жанр: детский, семейный
Год выпуска: 1961
Продолжительность: 00:55:39

Перевод: Не требуется
Cубтитры: нет
Оригинальная аудиодорожка: русский

Режиссер: Анатолий Вехотко

В ролях:
Володя Мареев, Борис Бархатов, Серёжа Рожновский, Марина Орданская, Инна Макарова, Виктор Хохряков, Вера Титова, Игнат Лейрер, Наталья Вербинина...
Об актёрах подробней

Описание:
Детская киноповесть по рассказам Юрия Нагибина "Комаров", "Старая черепаха", "Бешеный бык".
Три мальчика — братья Комаровы, воспитанники детского сада, каждый по-своему проводит это лето и каждый возвращается домой с открытием.

Источник: DVD5 R5
Качество видео: DVDRip
Формат видео: AVI

Видео: 672х496 (4:3), 25 fps, XviD ~ 1662 kbps avg, 0.200 bit/pixel
Аудио: 48 kHz, Dolby Digital AC3 2.0, 192 kbps

Раздача от:
Общее
Полное имя : Bratya.Komarovy.1961.DVDRip_[New-team]_by_AVP_Studio.avi
Формат : AVI
Формат/Информация : Audio Video Interleave
Размер файла : 742 Мбайт
Продолжительность : 55 м. 38 с.
Общий поток : 1864 Кбит/сек
Программа кодирования : VirtualDubMod 1.5.10.3 | www.virtualdub-fr.org || (build 2550/release)
Библиотека кодирования : VirtualDubMod build 2550/release

Видео
Идентификатор : 0
Формат : MPEG-4 Visual
Профиль формата : Advanced Simple@L5
Настройки формата : BVOP1 / Custom Matrix
Параметр BVOP формата : 1
Параметр QPel формата : Нет
Параметр GMC формата : Без точки перехода
Параметр матрицы формата : Выборочная
Идентификатор кодека : XVID
Идентификатор кодека/Подсказка : XviD
Продолжительность : 55 м. 38 с.
Битрейт : 1662 Кбит/сек
Ширина : 672 пикселя
Высота : 496 пикселей
Соотношение сторон : 4:3
Частота кадров : 25,000 кадров/сек
Цветовое пространство : YUV
Субдискретизация насыщенности : 4:2:0
Битовая глубина : 8 бит
Тип развёртки : Прогрессивная
Метод сжатия : С потерями
Бит/(Пиксели*Кадры) : 0.200
Размер потока : 662 Мбайт (89%)
Библиотека кодирования : XviD 73

Аудио
Идентификатор : 1
Формат : AC-3
Формат/Информация : Audio Coding 3
Коммерческое название : Dolby Digital
Идентификатор кодека : 2000
Продолжительность : 55 м. 38 с.
Вид битрейта : Постоянный
Битрейт : 192 Кбит/сек
Каналы : 2 канала
Channel layout : L R
Частота : 48,0 КГц
Частота кадров : 31,250 кадров/сек (1536 SPF)
Битовая глубина : 16 бит
Метод сжатия : С потерями
Размер потока : 76,4 Мбайт (10%)
Выравнивание : Разделение по промежуткам
Продолжительность промежутка : 40 мс. (1,00 видеокадр)
Время предзагрузки промежутка : 500 мс
pb.wtf



Скачать Братья Комаровы через торрент http://picplus.ru/img/1809/26/1bb83537.png Скачать фильм Братья Комаровы через торрент бесплантно в хорошем качестве Описание:Детская киноповесть по рассказам Юрия Нагибина "Комаров", "Старая черепаха", "Бешеный бык".Три мальчика — братья Комаровы, ... 5 10 1
Info! Золотая раздача, скачанное не засчитывается.
Торрент: Зарегистрирован [2018-09-26 08:42] · скачан: 16 раз
Статус: √ проверено
Размер: 742 MB
Как cкачать? Как скачать Братья Комаровы через торрент | qTorrent

% Раздел Тема Автор DL S | L
Кино СССР [ 745 MB ] Братья Комаровы [1961 СССР детский DVDRip-AVC от AVP Studio] AVP Studio Скачать
1 | 0


>> Регистрируемся здесь <<






Отзывы и комментарии о схеме читаем и пишем здесь: ---> Отзывы и комментарии о схеме

Новые благодарочки в телеграм довольных пользователей:
скриншот   скриншот   скриншот   скриншот   скриншот
    Дорогой пользователь! Огромная просьба, поблагодарите релизера, оцените раздачу и оставьте свои комментарий, если Вы скачали Братья Комаровы через торрент бесплатно! Внесите свою лепту в развитие PiratBit!
    Комментировать посты могут только пользователи прошедшие не сложную регистрацию
    Показать сообщения:    

    Братья Комаровы через торрент
    Скачать бесплатно Братья Комаровы
    Братья Комаровы скачать торрент
    Братья Комаровы смотреть онлайн
    Cкачать фильм Братья Комаровы бесплатно
    Братья Комаровы скачать торрент в хорошем качестве
    Братья Комаровы смотреть онлайн бесплатно в хорошем качестве


    Вы не можете начинать темы
    Вы не можете отвечать на сообщения
    Вы не можете редактировать свои сообщения
    Вы не можете удалять свои сообщения
    Вы не можете голосовать в опросах
    Вы не можете прикреплять файлы к сообщениям
    Вы можете скачивать файлы