Ссылка на приватное зеркало всего за 1$. Внимание количество ограничено!!!

OK

1+1

iTunes

мы

OK

1

WEB-DLRip

Джокер

Пифагор

Ведьмак / The Witcher сериал

Лицензия

ПШазам

ОК

Оно 2

iTunes

30
pack

Вам бонус

ВАЖНО

!!Акция!!

Alien_RageХит недели

RePack

Resident Evil 21

ИГРА 18+

pack

RePack

jed

RePack

fifa19

RePack

Assassins Creed: Odyssey

RePack

NEED FOR SPEED™ PAYBACK

4 сезон

9 сезон

Бесстыжие 9 сезон

Все сериалы

все сериалы на PB.wtf

RePack

FAR CRY 5
  

Секрет ее парня / Her Boyfriend's Secret (Лиза Френс) [2018, Триллер, HDTVRip 720p] MVO ["Синема УС"] pb.wtf

Секрет ее парня через торрент pb.wtf

Размер: 2.95 GB | Добавлен: 1 год 3 мес. назад | Торрент скачан:16 раз
Скачать  

26-09-2018 08:48 Секрет ее парня Скачать торрент  

Секрет ее парня / Her Boyfriend's SecretГод выпуска: 2018
Страна: США
Жанр: Триллер
Продолжительность: 01:26:40
Перевод: Любительский (многоголосый) | "Синема УС"
Субтитры: отсутствуют

Режиссер: Лиза Френс

rating

В ролях:

Келли Салливан, Майара Уолш, Марк Фамиглетти, Адальгиза Шемон, Лиза Коул, Калила Харрис, Энн Мари Лейтон, Кристиан Оливо, Мэтт Риди, Мэттью Рошело

Описание:

Мелиса думает, что нашла парня своей мечты, на вскоре она понимает, что этот мужчина ведет себя крайне загадочно и его жизнь полна темных секретов.

Качество: HDTVRip 720p
Формат: MKV

Видео: h.264, 4 483 kb/s, 1280x720
Аудио#1: Русский, (AC3, 2 ch, 384 Кбит/с)
скриншот  скриншот  скриншот  

Общее
Уникальный идентификатор : 250368617313449692934349480154986436994 (0xBC5B3DE17C31E31AB51DBD7F365BD982)
Полное имя : E:\торреннты\Her.Boyfriends.Secret.2O18.P.HDTV.72Op_KOSHARA.mkv
Формат : Matroska
Версия формата : Version 2
Размер файла : 2,95 Гбайт
Продолжительность : 1 ч. 26 м.
Режим общего битрейта : Переменный
Общий поток : 4869 Кбит/сек
Дата кодирования : UTC 2018-09-25 20:50:08
Программа кодирования : mkvmerge v8.3.0 ('Over the Horizon') 64bit
Библиотека кодирования : libebml v1.3.1 + libmatroska v1.4.2

Видео
Идентификатор : 1
Формат : AVC
Формат/Информация : Advanced Video Codec
Профиль формата : High@L4.1
Настройки формата : CABAC / 4 Ref Frames
Параметр CABAC формата : Да
Параметр RefFrames формата : 4 кадра
Идентификатор кодека : V_MPEG4/ISO/AVC
Продолжительность : 1 ч. 26 м.
Вид битрейта : Переменный
Битрейт : 4483 Кбит/сек
Максимальный битрейт : 5000 Кбит/сек
Ширина : 1280 пикселей
Высота : 720 пикселей
Соотношение сторон : 16:9
Режим частоты кадров : Постоянный
Частота кадров : 23,976 (24000/1001) кадра/сек
Стандарт вещания : Component
Цветовое пространство : YUV
Субдискретизация насыщенности : 4:2:0
Битовая глубина : 8 бит
Тип развёртки : Прогрессивная
Бит/(Пиксели*Кадры) : 0.199
Размер потока : 2,66 Гбайт (90%)
Default : Да
Forced : Нет
Цветовой диапазон : Limited
Основные цвета : BT.709
Характеристики трансфера : BT.709
Коэффициенты матрицы : BT.709

Аудио
Идентификатор : 2
Формат : AC-3
Формат/Информация : Audio Coding 3
Идентификатор кодека : A_AC3
Продолжительность : 1 ч. 26 м.
Вид битрейта : Постоянный
Битрейт : 384 Кбит/сек
Каналы : 2 канала
Расположение каналов : Front: L R
Частота : 48,0 КГц
Частота кадров : 31,250 кадров/сек (1536 SPF)
Битовая глубина : 16 бит
Метод сжатия : С потерями
Размер потока : 238 Мбайт (8%)
ServiceKind/String : Complete Main
Default : Да
Forced : Нет

pb.wtf



Скачать Секрет ее парня через торрент http://img11.lostpic.net/2018/09/26/6ba94b9055e66ae001145d63be3af98f.jpg Скачать фильм Секрет ее парня через торрент бесплантно в хорошем качестве Описание: Мелиса думает, что нашла парня своей мечты, на вскоре она понимает, что этот мужчина ведет себя крайне загадочно и его жизнь ... 10 10 2
Торрент: Зарегистрирован [2018-09-26 08:48] · скачан: 16 раз
Статус: T временная
Размер: 2.95 GB
Как cкачать? Как скачать Секрет ее парня через торрент | qTorrent

28-11-2019 20:33  

Отключить всю рекламу на сайте

    Дорогой пользователь! Огромная просьба, поблагодарите релизера, оцените раздачу и оставьте свои комментарий, если Вы скачали Секрет ее парня через торрент бесплатно! Внесите свою лепту в развитие PiratBit!
    Комментировать посты могут только пользователи прошедшие не сложную регистрацию
    Показать сообщения:    

    Секрет ее парня через торрент
    Скачать бесплатно Секрет ее парня
    Секрет ее парня скачать торрент
    Секрет ее парня смотреть онлайн
    Cкачать фильм Секрет ее парня бесплатно
    Секрет ее парня скачать торрент в хорошем качестве
    Секрет ее парня смотреть онлайн бесплатно в хорошем качестве


    Вы не можете начинать темы
    Вы не можете отвечать на сообщения
    Вы не можете редактировать свои сообщения
    Вы не можете удалять свои сообщения
    Вы не можете голосовать в опросах
    Вы не можете прикреплять файлы к сообщениям
    Вы можете скачивать файлы