Ссылка на приватное зеркало всего за 1$. Внимание количество ограничено!!!

OK

1+1

iTunes

мы

OK

1

WEB-DLRip

Джокер

Пифагор

Ведьмак / The Witcher сериал

iTunes

ПШазам

ОК

Оно 2

iTunes

30
pack

Вам бонус

ВАЖНО

!!Акция!!

Alien_RageХит недели

RePack

Resident Evil 21

ИГРА 18+

pack

RePack

jed

RePack

fifa19

RePack

Assassins Creed: Odyssey

RePack

NEED FOR SPEED™ PAYBACK

4 сезон

9 сезон

Бесстыжие 9 сезон

Все сериалы

все сериалы на PB.wtf

RePack

FAR CRY 5
  

Оно обитает внутри / It Lives Inside (Шон Бингам, Джефф Холл) [2018, Триллер, WEB-DL 720p] MVO ["Синема УС"] pb.wtf

Оно обитает внутри через торрент pb.wtf

Размер: 3.07 GB | Добавлен: 1 год 4 мес. назад | Торрент скачан:28 раз
Скачать  

26-09-2018 09:43 Оно обитает внутри Скачать торрент  

Оно обитает внутри / It Lives InsideГод выпуска: 2018
Страна: США
Жанр: Триллер
Продолжительность: 01:32:41
Перевод: Любительский (многоголосый) | "Синема УС"
Субтитры: отсутствуют

Режиссер: Шон Бингам, Джефф Холл

rating

В ролях:

Лори Каммингс, Алисса Форд, Лиам Роуз, Ретт Террелл

Описание:

Хронический сомнамбула находит в новом доме мистический том, где говорится, что его обладателю суждено быть поглощённым демоном. Через какое-то время, он начинает видеть в доме странные тени, а вокруг дома разворачиваются загадочные события.

Качество: WEB-DL 720p
Формат: MKV

Видео: h.264, 4 358 kb/s, 1280x720
Аудио#1: Русский, (AC3, 2 ch, 384 Кбит/с)
скриншот  скриншот  скриншот  

Общее
Уникальный идентификатор : 183277492234769892694149662903638233922 (0x89E1F606E533BB9FA5C6C00B5F011342)
Полное имя : E:\торреннты\It.Lives.Inside.2018.P.WEB-DL.72Op_KOSHARA.mkv
Формат : Matroska
Версия формата : Version 2
Размер файла : 3,07 Гбайт
Продолжительность : 1 ч. 32 м.
Режим общего битрейта : Переменный
Общий поток : 4744 Кбит/сек
Дата кодирования : UTC 2018-09-25 19:43:44
Программа кодирования : mkvmerge v8.3.0 ('Over the Horizon') 64bit
Библиотека кодирования : libebml v1.3.1 + libmatroska v1.4.2

Видео
Идентификатор : 1
Формат : AVC
Формат/Информация : Advanced Video Codec
Профиль формата : High@L4.1
Настройки формата : CABAC / 4 Ref Frames
Параметр CABAC формата : Да
Параметр RefFrames формата : 4 кадра
Идентификатор кодека : V_MPEG4/ISO/AVC
Продолжительность : 1 ч. 32 м.
Вид битрейта : Переменный
Битрейт : 4358 Кбит/сек
Максимальный битрейт : 5000 Кбит/сек
Ширина : 1280 пикселей
Высота : 720 пикселей
Соотношение сторон : 16:9
Режим частоты кадров : Постоянный
Частота кадров : 23,976 (24000/1001) кадра/сек
Стандарт вещания : Component
Цветовое пространство : YUV
Субдискретизация насыщенности : 4:2:0
Битовая глубина : 8 бит
Тип развёртки : Прогрессивная
Бит/(Пиксели*Кадры) : 0.193
Размер потока : 2,76 Гбайт (90%)
Default : Да
Forced : Нет
Цветовой диапазон : Limited
Основные цвета : BT.709
Характеристики трансфера : BT.709
Коэффициенты матрицы : BT.709

Аудио
Идентификатор : 2
Формат : AC-3
Формат/Информация : Audio Coding 3
Идентификатор кодека : A_AC3
Продолжительность : 1 ч. 32 м.
Вид битрейта : Постоянный
Битрейт : 384 Кбит/сек
Каналы : 2 канала
Расположение каналов : Front: L R
Частота : 48,0 КГц
Частота кадров : 31,250 кадров/сек (1536 SPF)
Битовая глубина : 16 бит
Метод сжатия : С потерями
Размер потока : 255 Мбайт (8%)
ServiceKind/String : Complete Main
Default : Да
Forced : Нет

pb.wtf



Скачать Оно обитает внутри через торрент http://img11.lostpic.net/2018/09/26/9f55c4c4b36d8420c58c2e11d3e3f3b0.jpg Скачать фильм Оно обитает внутри через торрент бесплантно в хорошем качестве Описание: Хронический сомнамбула находит в новом доме мистический том, где говорится, что его обладателю суждено быть поглощённым демоном. ... 10 10 2
Торрент: Зарегистрирован [2018-09-26 09:43] · скачан: 28 раз
Статус: T временная
Размер: 3.07 GB
Как cкачать? Как скачать Оно обитает внутри через торрент | qTorrent

% Раздел Тема Автор DL S | L
T Фильмы (мультфильмы) cо спонсором показа (Новинки AVI/MKV) [ 1.37 GB ] Оно обитает внутри / It Lives Inside [2018 WEB-DLRip] Любительский многоголосый ["Синема УС"] Леонид Ильич Скачать
1 | 0

28-11-2019 20:33  

Отключить всю рекламу на сайте

    Дорогой пользователь! Огромная просьба, поблагодарите релизера, оцените раздачу и оставьте свои комментарий, если Вы скачали Оно обитает внутри через торрент бесплатно! Внесите свою лепту в развитие PiratBit!
    Комментировать посты могут только пользователи прошедшие не сложную регистрацию
    Показать сообщения:    

    Оно обитает внутри через торрент
    Скачать бесплатно Оно обитает внутри
    Оно обитает внутри скачать торрент
    Оно обитает внутри смотреть онлайн
    Cкачать фильм Оно обитает внутри бесплатно
    Оно обитает внутри скачать торрент в хорошем качестве
    Оно обитает внутри смотреть онлайн бесплатно в хорошем качестве


    Вы не можете начинать темы
    Вы не можете отвечать на сообщения
    Вы не можете редактировать свои сообщения
    Вы не можете удалять свои сообщения
    Вы не можете голосовать в опросах
    Вы не можете прикреплять файлы к сообщениям
    Вы можете скачивать файлы