Ссылка на приватное зеркало всего за 1$. Внимание количество ограничено!!!

OK

1+1

iTunes

мы

OK

1

WEB-DLRip

Джокер

Пифагор

Ведьмак / The Witcher сериал

Лицензия

ПШазам

ОК

Оно 2

iTunes

30
pack

Вам бонус

ВАЖНО

!!Акция!!

Alien_RageХит недели

RePack

Resident Evil 21

ИГРА 18+

pack

RePack

jed

RePack

fifa19

RePack

Assassins Creed: Odyssey

RePack

NEED FOR SPEED™ PAYBACK

4 сезон

9 сезон

Бесстыжие 9 сезон

Все сериалы

все сериалы на PB.wtf

RePack

FAR CRY 5
  

Навсегда моя девушка / Forever My Girl (Бетани Эштон) [2018, драма, мелодрама, музыка, BDRip 1080p] MVO [iTunes] pb.wtf

Навсегда моя девушка через торрент pb.wtf

Размер: 7.74 GB | Добавлен: 1 год 3 мес. назад | Торрент скачан:109 раз
Скачать  

26-09-2018 11:11 Навсегда моя девушка Скачать торрент  

Навсегда моя девушка / Forever My Girl
Год выпуска: 2018
Страна: США
Жанр: драма, мелодрама, музыка
Продолжительность: 01:47:55
Перевод: Профессиональный многоголосый | iTunes
Субтитры: английские

Режиссер: Бетани Эштон

rating

В ролях:

Алекс Роу, Джессика Рот, Эбби Райдер Фортсон, Трэвис Тритт, Питер Кэмбор, Джиллиан Вигмэн, Джудит Хоаг, Тайлер Риггз, Джон Бенжамин Хикки, Морган Александрия

Описание:

Лиам Пейдж - кантри-музыкант, который вместо того, чтобы жениться на своей девушке Джози, помчался за славой и богатством. Но однажды ему приходится возвратиться в родной город на похороны своего лучшего друга. И здесь он снова встречает Джози - свою единственную настоящую любовь.

Качество: BDRip 1080p
Формат: MKV

Видео: MPEG-4 AVC, 1920x800, 9250 kbps, 23,976 fps
Аудио#1: русский, AC3, 5.1 ch, 48 kHz, 384 kbps | iTunes
Аудио#2: английский, AC3, 5.1 ch, 48 kHz, 640 kbps | оригинал
скриншот   скриншот   скриншот   скриншот   скриншот  

General
Уникальный идентификатор : 187102391329021733087163167864793315864 (0x8CC29C1CAF6C7DB098E2CC236BDFBA18)
Полное имя : F:TorrentNavsegdaMoyaDevushkaBDRip1080p.mkv
Формат : Matroska
Версия формата : Version 4 / Version 2
Размер файла : 7.74 GiB
Продолжительность : 1 h 47 min
Общий поток : 10.3 Mb/s
Дата кодирования : UTC 2018-09-26 09:34:46
Программа кодирования : mkvmerge v9.5.0 ('Quiet Fire') 64bit
Библиотека кодирования : libebml v1.3.4 + libmatroska v1.4.5

Video
Идентификатор : 1
Формат : AVC
Формат/Информация : Advanced Video Codec
Профиль формата : High@L4.1
Настройки формата : CABAC / 5 Ref Frames
Параметр CABAC формата : Yes
Параметр RefFrames формата : 5 frames
Идентификатор кодека : V_MPEG4/ISO/AVC
Продолжительность : 1 h 47 min
Битрейт : 9 250 kb/s
Ширина : 1 920 pixels
Высота : 800 pixels
Соотношение сторон : 2.40:1
Режим частоты кадров : Constant
Частота кадров : 23.976 (24000/1001) FPS
Цветовое пространство : YUV
Субдискретизация насыщенности : 4:2:0
Битовая глубина : 8 bits
Тип развёртки : Progressive
Бит/(Пиксели*Кадры) : 0.251
Размер потока : 6.97 GiB (90%)
Библиотека кодирования : x264 core 155 r2901M 7d0ff22
Настройки программы : cabac=1 / ref=5 / deblock=1:-3:-3 / analyse=0x3:0x113 / me=umh / subme=11 / psy=1 / psy_rd=1.00:0.00 / mixed_ref=1 / me_range=32 / chroma_me=1 / trellis=2 / 8x8dct=1 / cqm=0 / deadzone=21,11 / fast_pskip=0 / chroma_qp_offset=-2 / threads=9 / lookahead_threads=2 / sliced_threads=0 / nr=0 / decimate=0 / interlaced=0 / bluray_compat=0 / constrained_intra=0 / bframes=12 / b_pyramid=2 / b_adapt=2 / b_bias=0 / direct=3 / weightb=1 / open_gop=0 / weightp=2 / keyint=240 / keyint_min=24 / scenecut=40 / intra_refresh=0 / rc_lookahead=120 / rc=2pass / mbtree=0 / bitrate=9250 / ratetol=1.0 / qcomp=0.70 / qpmin=0 / qpmax=69 / qpstep=4 / cplxblur=20.0 / qblur=0.5 / vbv_maxrate=50000 / vbv_bufsize=62500 / nal_hrd=none / filler=0 / ip_ratio=1.40 / pb_ratio=1.30 / aq=3:0.80
Язык : English
Default : Yes
Forced : No
Цветовой диапазон : Limited
Основные цвета : BT.709
Характеристики трансфера : BT.709
Коэффициенты матрицы : BT.709

Audio #1
Идентификатор : 2
Формат : AC-3
Формат/Информация : Audio Coding 3
Идентификатор кодека : A_AC3
Продолжительность : 1 h 47 min
Вид битрейта : Constant
Битрейт : 384 kb/s
Каналы : 6 channels
Расположение каналов : Front: L C R, Side: L R, LFE
Частота : 48.0 kHz
Частота кадров : 31.250 FPS (1536 SPF)
Битовая глубина : 16 bits
Метод сжатия : Lossy
Размер потока : 296 MiB (4%)
Язык : Russian
Default : Yes
Forced : No

Audio #2
Идентификатор : 3
Формат : AC-3
Формат/Информация : Audio Coding 3
Идентификатор кодека : A_AC3
Продолжительность : 1 h 47 min
Вид битрейта : Constant
Битрейт : 640 kb/s
Каналы : 6 channels
Расположение каналов : Front: L C R, Side: L R, LFE
Частота : 48.0 kHz
Частота кадров : 31.250 FPS (1536 SPF)
Битовая глубина : 16 bits
Метод сжатия : Lossy
Размер потока : 494 MiB (6%)
Язык : English
Default : No
Forced : No

Text
Идентификатор : 4
Формат : UTF-8
Идентификатор кодека : S_TEXT/UTF8
Идентификатор кодека/Информация : UTF-8 Plain Text
Продолжительность : 1 h 38 min
Битрейт : 62 b/s
ElementCount : 1550
Размер потока : 45.1 KiB (0%)
Язык : English
Default : No
Forced : No

Menu
00:00:00.000 : :Chapter 00
00:00:16.015 : :Chapter 01
00:08:02.982 : :Chapter 02
00:14:22.528 : :Chapter 03
00:20:35.567 : :Chapter 04
00:28:22.534 : :Chapter 05
00:33:11.656 : :Chapter 06
00:39:26.655 : :Chapter 07
00:47:08.575 : :Chapter 08
00:54:19.005 : :Chapter 09
01:00:27.123 : :Chapter 10
01:09:12.898 : :Chapter 11
01:15:21.350 : :Chapter 12
01:20:50.720 : :Chapter 13
01:29:26.778 : :Chapter 14
01:35:18.921 : :Chapter 15
01:40:58.052 : :Chapter 16

pb.wtf



Скачать Навсегда моя девушка через торрент http://i91.fastpic.ru/big/2018/0926/2a/1819cc8cd90b3858d65586ab5d00722a.jpeg Скачать фильм Навсегда моя девушка через торрент бесплантно в хорошем качестве Описание: Лиам Пейдж - кантри-музыкант, который вместо того, чтобы жениться на своей девушке Джози, помчался за славой и богатством. Но ... 10 10 2
Торрент: Зарегистрирован [2018-09-26 11:11] · скачан: 109 раз
Статус: √ проверено
Размер: 7.74 GB
Как cкачать? Как скачать Навсегда моя девушка через торрент | qTorrent

% Раздел Тема Автор DL S | L
Фильмы 2018 [DVDrip, WEB-DLRip, HDrip] (DUB, MVO) [ 1.41 GB ] Навсегда моя девушка / Forever My Girl [2018 музыка BDRip] MVO Twi7ter Скачать
4 | 0
Фильмы (Blu-ray, BD-Remux, HDDVD) [ 19.43 GB ] Навсегда моя девушка / Forever My Girl [2018 музыка BD Remux 1080p] MVO bober100 Скачать
1 | 0
Фильмы 2018 [DVDrip, WEB-DLRip, HDrip] (DUB, MVO) [ 1.46 GB ] Навсегда моя девушка / Forever My Girl [2018 музыка BDRip] MVO bober100 Скачать
1 | 0
Фильмы 2018 [DVDrip, WEB-DLRip, HDrip] (DUB, MVO) [ 747 MB ] Навсегда моя девушка / Forever My Girl [2018 музыка BDRip] MVO bober100 Скачать
1 | 0
Фильмы [HD 720p, 1080p] (Хороший звук DUB, MVO) [ 3.8 GB ] Навсегда моя девушка / Forever My Girl [2018 музыка BDRip 720p] MVO bober100 Скачать
1 | 0

28-11-2019 20:33  

Отключить всю рекламу на сайте

    Дорогой пользователь! Огромная просьба, поблагодарите релизера, оцените раздачу и оставьте свои комментарий, если Вы скачали Навсегда моя девушка через торрент бесплатно! Внесите свою лепту в развитие PiratBit!
    Комментировать посты могут только пользователи прошедшие не сложную регистрацию
    Показать сообщения:    

    Навсегда моя девушка через торрент
    Скачать бесплатно Навсегда моя девушка
    Навсегда моя девушка скачать торрент
    Навсегда моя девушка смотреть онлайн
    Cкачать фильм Навсегда моя девушка бесплатно
    Навсегда моя девушка скачать торрент в хорошем качестве
    Навсегда моя девушка смотреть онлайн бесплатно в хорошем качестве


    Вы не можете начинать темы
    Вы не можете отвечать на сообщения
    Вы не можете редактировать свои сообщения
    Вы не можете удалять свои сообщения
    Вы не можете голосовать в опросах
    Вы не можете прикреплять файлы к сообщениям
    Вы можете скачивать файлы