Ссылка на приватное зеркало нашего сайта всего за 1$. Внимание количество ограничено!!!

2 сезон

iTunes

1 сезон

1

2 сезон

2 сезон

iTunes

1 сезон

RePack

30

Новинка

ВАЖНО

ИГРА 18+

pack

RePack

MK11
pack

Забери бонус

RePack

jed

!!Акция!!

Alien_Rage

RePack

fifa19

RePack

Assassins Creed: Odyssey

RePack

NEED FOR SPEED™ PAYBACK

4 сезон

9 сезон

Бесстыжие 9 сезон

Все сериалы

все сериалы на PB.wtf

RePack

FAR CRY 5
  

Джек Райан / Jack Ryan / Сезон: 1 / Серии: 1-8 из 8 (Патрисия Ригген, Дэниэл Сакхайм, Карлтон Кьюз) [2018, Боевик, триллер, драма, WEBRip 2160p] 2xMVO (LostFilm) (NewStudio) pb.wtf

Джек Райан через торрент pb.wtf

Размер: 73.63 GB | Добавлен: 2 года 2 мес. назад | Торрент скачан:5 раз
Скачать  

26-09-2018 13:43 Джек Райан Скачать торрент  

Джек Райан / Jack Ryan

Год выпуска: 2018
Страна: США
Жанр: боевик, триллер, драма
Продолжительность: 8 x ~ 00:55:00
Перевод: Профессиональный многоголосый
Субтитры: Русские, английские, испанские, французские, немецкие, португальские, арабские, китайские, индийские, финские, корейские, турецкие, польские, шведские, норвежские
Режиссер: Патрисия Ригген , Дэниэл Сакхайм , Дэнни Гордон
В ролях:

Джон Красински (Jack Ryan), Уенделл Пирс (James Greer), Джон Хугенэккер (Matice), Эбби Корниш (Cathy Mueller), Али Сулиман (Suleiman), Dina Shihabi (Hanin), Хааз Слейман (Ali), Karim Zein (Samir), Эммануэль Люссье Мартинес (Teresa), Йован Адепо (Marcus), Франциско Дэнис (Ubarri), Хорди Молья (Nicolás Reyes)
Описание:
Аналитик ЦРУ Джек Райан натыкается на подозрительную серию банковских переводов и начинает собственное расследование. Оно заставляет героя оставить безопасную офисную работу и включиться в смертельную игру кошки-мышки по всей Европе и на Ближнем Востоке с лидером террористов, готовящим массированную атаку на США и её союзников.
Рейтинг:

Качество: WEBRip 2160p | Исх. Tom Clancy's Jack Ryan S01 2160p HDR Amazon WEBRip DD+ 5.1 x265-TrollUHD
Формат: MKV
Видео: HDR, HEVC, ~ 29.2 Мбит/с, 3840х2160
Аудио #1: Русский (AC3, 6 ch, 640 Кбит/с) - Профессиональный многоголосый закадровый (LostFilm) (работа с звуком itunestv)
Аудио #2: Русский (AC3, 6 ch, 384 Кбит/с) - Профессиональный многоголосый закадровый (NewStudio) (очистка от рекламы Atla22)
Аудио #3: Английский (E-AC3, 6 ch, 640 Кбит/с) - Оригинал
ВНИМАНИЕ: В дорожке от Ньюстудио присутствует НЕНОРМАТИВНАЯ лексика.
Релиз без рекламы
01. Пилот | Pilot
02. Связь с Францией | French Connection
03. 22 черное | Black 22
04. Волк | The Wolf
05. Конец благородству | End of Honor
06. Источники и способы | Sources and Methods
07. Мальчик | The Boy
08. На всё воля Аллаха | Inshallah
Общее
Уникальный идентификатор : 339950413027653726028809454476647673234 (0xFFC01168D1ED5E5698901A1FDC1F2D92)
Полное имя : D:\Tom.Clancys.Jack.Ryan.S01.2160p.HDR.WEBRip.2xRus.Eng.Subs.EniaHD\Tom.Clancys.Jack.Ryan.S01E01.Pilot.2160p.HDR.WEBRip.2xRus.Eng.Subs.EniaHD.mkv
Формат : Matroska
Версия формата : Version 4
Размер файла : 14,0 Гбайт
Продолжительность : 1 ч. 4 м.
Общий поток : 30,9 Мбит/сек
Название фильма : Пилот
Дата кодирования : UTC 2018-09-13 23:12:58
Программа кодирования : mkvmerge v26.0.0 ('In The Game') 32-bit
Библиотека кодирования : libebml v1.3.6 + libmatroska v1.4.9
Обложка : Yes
Attachments : cover.jack.ryan.jpg

Видео
Идентификатор : 1
Формат : HEVC
Формат/Информация : High Efficiency Video Coding
Коммерческое название : HDR10
Профиль формата : Main 10@L5@Main
Идентификатор кодека : V_MPEGH/ISO/HEVC
Продолжительность : 1 ч. 4 м.
Битрейт : 29,2 Мбит/сек
Ширина : 3840 пикселей
Высота : 2160 пикселей
Соотношение сторон : 16:9
Режим частоты кадров : Постоянный
Частота кадров : 23,976 (24000/1001) кадра/сек
Цветовое пространство : YUV
Субдискретизация насыщенности : 4:2:0
Битовая глубина : 10 бит
Бит/(Пиксели*Кадры) : 0.147
Размер потока : 13,3 Гбайт (95%)
Заголовок : Tom Clancy's Jack Ryan S01E01 Pilot - Release Zgurvas for EniaHD
Библиотека кодирования : x265 2.8+58-d17bc7714ed2:[Windows][MSVC 1914][64 bit] 10bit
Настройки программы : cpuid=1111039 / frame-threads=4 / numa-pools=28 / wpp / no-pmode / no-pme / no-psnr / no-ssim / log-level=2 / input-csp=1 / input-res=3840x2160 / interlace=0 / total-frames=0 / level-idc=0 / high-tier=1 / uhd-bd=0 / ref=5 / no-allow-non-conformance / repeat-headers / annexb / no-aud / no-hrd / info / hash=0 / no-temporal-layers / open-gop / min-keyint=23 / keyint=250 / gop-lookahead=0 / bframes=8 / b-adapt=2 / b-pyramid / bframe-bias=0 / rc-lookahead=40 / lookahead-slices=0 / scenecut=40 / radl=0 / no-intra-refresh / ctu=64 / min-cu-size=8 / rect / amp / max-tu-size=32 / tu-inter-depth=3 / tu-intra-depth=3 / limit-tu=4 / rdoq-level=2 / dynamic-rd=0.00 / no-ssim-rd / signhide / no-tskip / nr-intra=0 / nr-inter=0 / no-constrained-intra / no-strong-intra-smoothing / max-merge=4 / limit-refs=1 / limit-modes / me=3 / subme=4 / merange=57 / temporal-mvp / weightp / weightb / no-analyze-src-pics / deblock=0:0 / sao / no-sao-non-deblock / rd=6 / no-early-skip / rskip / no-fast-intra / no-tskip-fast / no-cu-lossless / b-intra / no-splitrd-skip / rdpenalty=0 / psy-rd=2.00 / psy-rdoq=1.00 / no-rd-refine / no-lossless / cbqpoffs=0 / crqpoffs=0 / rc=crf / crf=12.0 / qcomp=0.60 / qpstep=4 / stats-write=0 / stats-read=0 / ipratio=1.40 / pbratio=1.30 / aq-mode=1 / aq-strength=1.00 / cutree / zone-count=0 / no-strict-cbr / qg-size=32 / no-rc-grain / qpmax=69 / qpmin=0 / no-const-vbv / sar=0 / overscan=0 / videoformat=5 / range=0 / colorprim=9 / transfer=16 / colormatrix=9 / chromaloc=0 / display-window=0 / master-display=G(13250,34500)B(7500,3000)R(34000,16000)WP(15635,16450)L(10000000,1) / max-cll=970,269 / min-luma=0 / max-luma=1023 / log2-max-poc-lsb=8 / vui-timing-info / vui-hrd-info / slices=1 / no-opt-qp-pps / no-opt-ref-list-length-pps / no-multi-pass-opt-rps / scenecut-bias=0.05 / no-opt-cu-delta-qp / no-aq-motion / hdr / hdr-opt / no-dhdr10-opt / no-idr-recovery-sei / analysis-reuse-level=5 / scale-factor=0 / refine-intra=0 / refine-inter=0 / refine-mv=0 / limit-sao / ctu-info=0 / no-lowpass-dct / refine-mv-type=0 / copy-pic=1 / max-ausize-factor=1.0 / no-dynamic-refine / no-single-sei
Язык : English
Default : Да
Forced : Нет
Цветовой диапазон : Limited
Основные цвета : BT.2020
Характеристики трансфера : PQ
Коэффициенты матрицы : BT.2020 non-constant
MasteringDisplay_ColorPrimaries : Display P3
MasteringDisplay_Luminance : min: 0.0001 cd/m2, max: 1000 cd/m2
MaxCLL : 970 cd/m2
MaxFALL : 269 cd/m2

Аудио #1
Идентификатор : 2
Формат : AC-3
Формат/Информация : Audio Coding 3
Коммерческое название : Dolby Digital
Идентификатор кодека : A_AC3
Продолжительность : 1 ч. 4 м.
Вид битрейта : Постоянный
Битрейт : 640 Кбит/сек
Каналы : 6 каналов
Channel layout : L R C LFE Ls Rs
Частота : 48,0 КГц
Частота кадров : 31,250 кадров/сек (1536 SPF)
Битовая глубина : 16 бит
Метод сжатия : С потерями
Размер потока : 298 Мбайт (2%)
Заголовок : AC3 5.1 @ 640 kbps - MVO, LostFilm
Язык : Russian
ServiceKind/String : Complete Main
Default : Да
Forced : Нет

Аудио #2
Идентификатор : 3
Формат : AC-3
Формат/Информация : Audio Coding 3
Коммерческое название : Dolby Digital
Идентификатор кодека : A_AC3
Продолжительность : 1 ч. 4 м.
Вид битрейта : Постоянный
Битрейт : 384 Кбит/сек
Каналы : 6 каналов
Channel layout : L R C LFE Ls Rs
Частота : 48,0 КГц
Частота кадров : 31,250 кадров/сек (1536 SPF)
Битовая глубина : 16 бит
Метод сжатия : С потерями
Размер потока : 179 Мбайт (1%)
Заголовок : AC3 5.1 @ 384 kbps - MVO, NewStudio
Язык : Russian
ServiceKind/String : Complete Main
Default : Нет
Forced : Нет

Аудио #3
Идентификатор : 4
Формат : E-AC-3
Формат/Информация : Enhanced AC-3
Коммерческое название : Dolby Digital Plus
Идентификатор кодека : A_EAC3
Продолжительность : 1 ч. 4 м.
Вид битрейта : Постоянный
Битрейт : 640 Кбит/сек
Каналы : 6 каналов
Channel layout : L R C LFE Ls Rs
Частота : 48,0 КГц
Частота кадров : 31,250 кадров/сек (1536 SPF)
Метод сжатия : С потерями
Размер потока : 298 Мбайт (2%)
Заголовок : E-AC3 5.1 @ 640 kbps - Original
Язык : English
ServiceKind/String : Complete Main
Default : Нет
Forced : Нет

Текст #1
Идентификатор : 5
Формат : UTF-8
Идентификатор кодека : S_TEXT/UTF8
Идентификатор кодека/Информация : UTF-8 Plain Text
Продолжительность : 38 м. 5 с.
Битрейт : 1 бит/сек
ElementCount : 11
Размер потока : 545 байт (0%)
Заголовок : Forced
Язык : Russian
Default : Да
Forced : Да

Текст #2
Идентификатор : 6
Формат : UTF-8
Идентификатор кодека : S_TEXT/UTF8
Идентификатор кодека/Информация : UTF-8 Plain Text
Продолжительность : 1 ч. 1 м.
Битрейт : 67 бит/сек
ElementCount : 530
Размер потока : 30,0 Кбайт (0%)
Заголовок : Full
Язык : Russian
Default : Нет
Forced : Нет

Текст #3
Идентификатор : 7
Формат : UTF-8
Идентификатор кодека : S_TEXT/UTF8
Идентификатор кодека/Информация : UTF-8 Plain Text
Продолжительность : 56 м. 38 с.
Битрейт : 2 бит/сек
ElementCount : 45
Размер потока : 1,02 Кбайт (0%)
Заголовок : Forced
Язык : English
Default : Нет
Forced : Нет

Текст #4
Идентификатор : 8
Формат : UTF-8
Идентификатор кодека : S_TEXT/UTF8
Идентификатор кодека/Информация : UTF-8 Plain Text
Продолжительность : 56 м. 58 с.
Битрейт : 40 бит/сек
ElementCount : 625
Размер потока : 16,8 Кбайт (0%)
Заголовок : Full
Язык : English
Default : Нет
Forced : Нет

Текст #5
Идентификатор : 9
Формат : UTF-8
Идентификатор кодека : S_TEXT/UTF8
Идентификатор кодека/Информация : UTF-8 Plain Text
Продолжительность : 1 ч. 2 м.
Битрейт : 45 бит/сек
ElementCount : 820
Размер потока : 20,7 Кбайт (0%)
Заголовок : Full SDH
Язык : English
Default : Нет
Forced : Нет

Текст #6
Идентификатор : 10
Формат : UTF-8
Идентификатор кодека : S_TEXT/UTF8
Идентификатор кодека/Информация : UTF-8 Plain Text
Продолжительность : 1 ч. 1 м.
Битрейт : 53 бит/сек
ElementCount : 502
Размер потока : 23,9 Кбайт (0%)
Заголовок : Full
Язык : Arabic
Default : Нет
Forced : Нет

Текст #7
Идентификатор : 11
Формат : UTF-8
Идентификатор кодека : S_TEXT/UTF8
Идентификатор кодека/Информация : UTF-8 Plain Text
Продолжительность : 1 ч. 1 м.
Битрейт : 32 бит/сек
ElementCount : 530
Размер потока : 14,8 Кбайт (0%)
Заголовок : Full
Язык : Chinese
Default : Нет
Forced : Нет

Текст #8
Идентификатор : 12
Формат : UTF-8
Идентификатор кодека : S_TEXT/UTF8
Идентификатор кодека/Информация : UTF-8 Plain Text
Продолжительность : 1 ч. 1 м.
Битрейт : 32 бит/сек
ElementCount : 530
Размер потока : 14,8 Кбайт (0%)
Заголовок : Full
Язык : Chinese
Default : Нет
Forced : Нет

Текст #9
Идентификатор : 13
Формат : UTF-8
Идентификатор кодека : S_TEXT/UTF8
Идентификатор кодека/Информация : UTF-8 Plain Text
Продолжительность : 1 ч. 0 м.
Битрейт : 37 бит/сек
ElementCount : 528
Размер потока : 16,4 Кбайт (0%)
Заголовок : Full
Язык : Danish
Default : Нет
Forced : Нет

Текст #10
Идентификатор : 14
Формат : UTF-8
Идентификатор кодека : S_TEXT/UTF8
Идентификатор кодека/Информация : UTF-8 Plain Text
Продолжительность : 58 м. 2 с.
Битрейт : 40 бит/сек
ElementCount : 444
Размер потока : 17,2 Кбайт (0%)
Заголовок : Full
Язык : German
Default : Нет
Forced : Нет

Текст #11
Идентификатор : 15
Формат : UTF-8
Идентификатор кодека : S_TEXT/UTF8
Идентификатор кодека/Информация : UTF-8 Plain Text
Продолжительность : 1 ч. 1 м.
Битрейт : 37 бит/сек
ElementCount : 527
Размер потока : 16,6 Кбайт (0%)
Заголовок : Full
Язык : Spanish
Default : Нет
Forced : Нет

Текст #12
Идентификатор : 16
Формат : UTF-8
Идентификатор кодека : S_TEXT/UTF8
Идентификатор кодека/Информация : UTF-8 Plain Text
Продолжительность : 1 ч. 1 м.
Битрейт : 37 бит/сек
ElementCount : 527
Размер потока : 16,6 Кбайт (0%)
Заголовок : Full
Язык : Spanish
Default : Нет
Forced : Нет

Текст #13
Идентификатор : 17
Формат : UTF-8
Идентификатор кодека : S_TEXT/UTF8
Идентификатор кодека/Информация : UTF-8 Plain Text
Продолжительность : 1 ч. 1 м.
Битрейт : 35 бит/сек
ElementCount : 527
Размер потока : 15,9 Кбайт (0%)
Заголовок : Full
Язык : Finnish
Default : Нет
Forced : Нет

Текст #14
Идентификатор : 18
Формат : UTF-8
Идентификатор кодека : S_TEXT/UTF8
Идентификатор кодека/Информация : UTF-8 Plain Text
Продолжительность : 1 ч. 1 м.
Битрейт : 38 бит/сек
ElementCount : 524
Размер потока : 17,2 Кбайт (0%)
Заголовок : Full
Язык : French
Default : Нет
Forced : Нет

Текст #15
Идентификатор : 19
Формат : UTF-8
Идентификатор кодека : S_TEXT/UTF8
Идентификатор кодека/Информация : UTF-8 Plain Text
Продолжительность : 1 ч. 1 м.
Битрейт : 92 бит/сек
ElementCount : 530
Размер потока : 41,6 Кбайт (0%)
Заголовок : Full
Язык : Hindi
Default : Нет
Forced : Нет

Текст #16
Идентификатор : 20
Формат : UTF-8
Идентификатор кодека : S_TEXT/UTF8
Идентификатор кодека/Информация : UTF-8 Plain Text
Продолжительность : 1 ч. 1 м.
Битрейт : 34 бит/сек
ElementCount : 530
Размер потока : 15,2 Кбайт (0%)
Заголовок : Full
Язык : Indonesian
Default : Нет
Forced : Нет

Текст #17
Идентификатор : 21
Формат : UTF-8
Идентификатор кодека : S_TEXT/UTF8
Идентификатор кодека/Информация : UTF-8 Plain Text
Продолжительность : 1 ч. 0 м.
Битрейт : 37 бит/сек
ElementCount : 527
Размер потока : 16,4 Кбайт (0%)
Заголовок : Full
Язык : Italian
Default : Нет
Forced : Нет

Текст #18
Идентификатор : 22
Формат : UTF-8
Идентификатор кодека : S_TEXT/UTF8
Идентификатор кодека/Информация : UTF-8 Plain Text
Продолжительность : 1 ч. 1 м.
Битрейт : 39 бит/сек
ElementCount : 530
Размер потока : 17,8 Кбайт (0%)
Заголовок : Full
Язык : Korean
Default : Нет
Forced : Нет

Текст #19
Идентификатор : 23
Формат : UTF-8
Идентификатор кодека : S_TEXT/UTF8
Идентификатор кодека/Информация : UTF-8 Plain Text
Продолжительность : 1 ч. 1 м.
Битрейт : 35 бит/сек
ElementCount : 530
Размер потока : 15,7 Кбайт (0%)
Заголовок : Full
Язык : Norwegian Bokmal
Default : Нет
Forced : Нет

Текст #20
Идентификатор : 24
Формат : UTF-8
Идентификатор кодека : S_TEXT/UTF8
Идентификатор кодека/Информация : UTF-8 Plain Text
Продолжительность : 1 ч. 0 м.
Битрейт : 34 бит/сек
ElementCount : 529
Размер потока : 15,1 Кбайт (0%)
Заголовок : Full
Язык : Dutch
Default : Нет
Forced : Нет

Текст #21
Идентификатор : 25
Формат : UTF-8
Идентификатор кодека : S_TEXT/UTF8
Идентификатор кодека/Информация : UTF-8 Plain Text
Продолжительность : 1 ч. 0 м.
Битрейт : 34 бит/сек
ElementCount : 518
Размер потока : 15,3 Кбайт (0%)
Заголовок : Full
Язык : Polish
Default : Нет
Forced : Нет

Текст #22
Идентификатор : 26
Формат : UTF-8
Идентификатор кодека : S_TEXT/UTF8
Идентификатор кодека/Информация : UTF-8 Plain Text
Продолжительность : 1 ч. 1 м.
Битрейт : 36 бит/сек
ElementCount : 530
Размер потока : 16,2 Кбайт (0%)
Заголовок : Full
Язык : Portuguese
Default : Нет
Forced : Нет

Текст #23
Идентификатор : 27
Формат : UTF-8
Идентификатор кодека : S_TEXT/UTF8
Идентификатор кодека/Информация : UTF-8 Plain Text
Продолжительность : 1 ч. 0 м.
Битрейт : 35 бит/сек
ElementCount : 527
Размер потока : 15,8 Кбайт (0%)
Заголовок : Full
Язык : Swedish
Default : Нет
Forced : Нет

Текст #24
Идентификатор : 28
Формат : UTF-8
Идентификатор кодека : S_TEXT/UTF8
Идентификатор кодека/Информация : UTF-8 Plain Text
Продолжительность : 1 ч. 1 м.
Битрейт : 108 бит/сек
ElementCount : 530
Размер потока : 48,4 Кбайт (0%)
Заголовок : Full
Язык : Tamil
Default : Нет
Forced : Нет

Текст #25
Идентификатор : 29
Формат : UTF-8
Идентификатор кодека : S_TEXT/UTF8
Идентификатор кодека/Информация : UTF-8 Plain Text
Продолжительность : 1 ч. 1 м.
Битрейт : 96 бит/сек
ElementCount : 530
Размер потока : 43,3 Кбайт (0%)
Заголовок : Full
Язык : Telugu
Default : Нет
Forced : Нет

Текст #26
Идентификатор : 30
Формат : UTF-8
Идентификатор кодека : S_TEXT/UTF8
Идентификатор кодека/Информация : UTF-8 Plain Text
Продолжительность : 1 ч. 1 м.
Битрейт : 38 бит/сек
ElementCount : 529
Размер потока : 17,3 Кбайт (0%)
Заголовок : Full
Язык : Turkish
Default : Нет
Forced : Нет

Меню
00:00:00.000 : en:Amazon Original
00:00:05.000 : en:Title Sequence
00:00:29.000 : en:Lebanon 1983
00:02:44.000 : en:Washington D.C. present day
00:10:54.000 : en:Al Mnajeer, Syria
00:13:41.000 : en:Jack discovers a connection
00:20:12.000 : en:Hanin has suspicions about their guest
00:21:51.000 : en:Jack takes matters into his own hands
00:23:37.000 : en:Greer confronts Ryan about his actions
00:27:06.000 : en:A covert mission in Yemen
00:31:05.000 : en:Jack takes an unexpected trip
00:38:01.000 : en:Sarawat Mountains, Yemen
00:42:14.000 : en:Jack visits the other prisoner
00:45:55.000 : en:The base gets an unexpected delivery
00:50:52.000 : en:Jack learns the truth the hard way
01:02:58.000 : en:End Credits
pb.wtf



Скачать Джек Райан через торрент https://b.radikal.ru/b42/1809/45/9af2f8429f15.png Скачать фильм Джек Райан через торрент бесплантно в хорошем качестве Описание: Аналитик ЦРУ Джек Райан натыкается на подозрительную серию банковских переводов и начинает собственное расследование. Оно ... 5.5 10 2
Торрент: Зарегистрирован [2018-09-26 13:43] · скачан: 5 раз
Статус: √ проверено
Размер: 73.63 GB
Как cкачать? Как скачать Джек Райан через торрент | qTorrent

% Раздел Тема Автор DL S | L
Зарубежные сериалы [ 12.74 GB ] Джек Райан / Jack Ryan / Сезон: 2 / Серии: 1-8 из 8 [2019 WEBRip 720p] [DVO] killermax2013 Скачать
1 | 0
Зарубежные сериалы [ 24.67 GB ] Джек Райан / Jack Ryan / Сезон: 2 / Серии: 1-8 из 8 [2019 WEB-DL 1080p] MVO [TVShows] bober100 Скачать
1 | 0
Зарубежные сериалы [ 23.85 GB ] Джек Райан / Jack Ryan / Сезон: 2 / Серия: 1-8 из 8 [2019 WEB-DL 1080p] MVO [Jaskier] bober100 Скачать
1 | 0
Зарубежные сериалы [ 11.42 GB ] Джек Райан / Jack Ryan / Сезон: 2 / Серия: 1-8 из 8 [2019 WEB-DL 720p] MVO [Jaskier] bober100 Скачать
1 | 0
Зарубежные сериалы [ 4.31 GB ] Джек Райан / Jack Ryan / Сезон: 2 / Серия: 1-8 из 8 [2019 WEB-DLRip] MVO [Jaskier] bober100 Скачать
1 | 0
Зарубежные сериалы [ 12.74 GB ] Джек Райан / Jack Ryan / Сезон: 2 / Серия: 1-8 из 8 [2019 WEB-DL 720p] MVO [Lostfilm] bober100 Скачать
1 | 0
Зарубежные сериалы [ 5.16 GB ] Джек Райан / Jack Ryan / Сезон: 2 / Серии: 1-8 из 8 [2019 WEB-DLRip] MVO [LostFilm] bober100 Скачать
1 | 0

28-11-2019 20:33  

Отключить всю рекламу на сайте

    Дорогой пользователь! Огромная просьба, поблагодарите релизера, оцените раздачу и оставьте свои комментарий, если Вы скачали Джек Райан через торрент бесплатно! Внесите свою лепту в развитие PiratBit!
    Комментировать посты могут только пользователи прошедшие не сложную регистрацию
    Показать сообщения:    

    Джек Райан через торрент
    Скачать бесплатно Джек Райан
    Джек Райан скачать торрент
    Джек Райан смотреть онлайн
    Cкачать фильм Джек Райан бесплатно
    Джек Райан скачать торрент в хорошем качестве
    Джек Райан смотреть онлайн бесплатно в хорошем качестве


    Вы не можете начинать темы
    Вы не можете отвечать на сообщения
    Вы не можете редактировать свои сообщения
    Вы не можете удалять свои сообщения
    Вы не можете голосовать в опросах
    Вы не можете прикреплять файлы к сообщениям
    Вы можете скачивать файлы