Ссылка на приватное зеркало нашего сайта всего за 1$. Внимание количество ограничено!!!

2 сезон

iTunes

1 сезон

1

2 сезон

2 сезон

iTunes

1 сезон

RePack

30

Новинка

ВАЖНО

ИГРА 18+

pack

RePack

MK11
pack

Забери бонус

RePack

jed

!!Акция!!

Alien_Rage

RePack

fifa19

RePack

Assassins Creed: Odyssey

RePack

NEED FOR SPEED™ PAYBACK

4 сезон

9 сезон

Бесстыжие 9 сезон

Все сериалы

все сериалы на PB.wtf

RePack

FAR CRY 5
  

Маньяк / Maniac / Сезон: 1 / Серии: 1-10 из 10 (Кэри Фукунага / Cary Joji Fukunaga) [2018, фантастика, драма, комедия, WEB-DLRip] [MVO] (BTI Studios & Невафильм) pb.wtf

Маньяк через торрент pb.wtf

Размер: 7.86 GB | Добавлен: 2 года 2 мес. назад | Торрент скачан:188 раз
Скачать  

26-09-2018 15:25 Маньяк Скачать торрент  

[font=serif1]Маньяк / Maniac

Год выпуска: 2018
Страна: США
Жанр: фантастика, драма, комедия
Продолжительность: ~00:45:00
Перевод: Профессиональный (многоголосый закадровый) | BTI Studios & Невафильм
Режиссёр: Кэри Фукунага
В ролях: Джона Хилл, Билли Магнуссен, Соноя Мидзуно, Эмма Стоун, Седжал Шах, Аралин Андерсон, Александра Каррен, Кристиан ДеМараис, Джулия Гарнер, Рому Канда
Описание: Энни Лендсберг и Оуэн Милгрим — два незнакомца, согласившиеся принять участие в испытании нового фармацевтического средства. У каждого на это свои причины. Энни пытается справиться с разрушенными отношениями, а Оуэн переживает из-за шизофрении, которую ему поставили еще в детстве. Новое лекарство доктора Мантлрэя обещает исправить любое заболевание, вплоть до разбитого сердца. Только вот почему-то никто не хочет говорить о побочных эффектах.


Качество: WEB-DLRip
Формат: AVI
Видео: XviD, 720x304, 23,976 fps, ~2000 kbps
Аудио #1: 48 kHz, AC3 Dolby Digital, 3/2 (L,C,R,l,r) + LFE ch, ~384 kbps | Rus
Аудио #2: 48 kHz, AC3 Dolby Digital, 3/2 (L,C,R,l,r) + LFE ch, ~384 kbps | Eng
Субтитры: Русские (форсированные)
Реклама: нет


Format : AVI
Format/Info : Audio Video Interleave
File size : 870 MiB
Duration : 41 min 12 s
Overall bit rate : 2 952 kb/s
Writing application : VirtualDubMod 1.5.10.2 (build 2540/release)
Writing library : VirtualDubMod build 2540/release

Video
ID : 0
Format : MPEG-4 Visual
Format profile : Advanced Simple@L5
Format settings : BVOP1 / Custom Matrix
Format settings, BVOP : 1
Format settings, QPel : No
Format settings, GMC : No warppoints
Format settings, Matrix : Custom
Codec ID : XVID
Codec ID/Hint : XviD
Duration : 41 min 12 s
Bit rate : 2 170 kb/s
Width : 720 pixels
Height : 304 pixels
Display aspect ratio : 2.35:1
Frame rate : 23.976 (24000/1001) FPS
Color space : YUV
Chroma subsampling : 4:2:0
Bit depth : 8 bits
Scan type : Progressive
Compression mode : Lossy
Bits/(Pixel*Frame) : 0.414
Stream size : 640 MiB (74%)
Writing library : XviD 73

Audio #1
ID : 1
Format : AC-3
Format/Info : Audio Coding 3
Codec ID : 2000
Duration : 41 min 12 s
Bit rate mode : Constant
Bit rate : 384 kb/s
Channel(s) : 6 channels
Channel positions : Front: L C R, Side: L R, LFE
Sampling rate : 48.0 kHz
Frame rate : 31.250 FPS (1536 SPF)
Bit depth : 16 bits
Compression mode : Lossy
Stream size : 113 MiB (13%)
Alignment : Split accross interleaves
Interleave, duration : 42 ms (1.00 video frame)
Interleave, preload duratio : 500 ms
Service kind : Complete Main

Audio #2
ID : 2
Format : AC-3
Format/Info : Audio Coding 3
Codec ID : 2000
Duration : 41 min 12 s
Bit rate mode : Constant
Bit rate : 384 kb/s
Channel(s) : 6 channels
Channel positions : Front: L C R, Side: L R, LFE
Sampling rate : 48.0 kHz
Frame rate : 31.250 FPS (1536 SPF)
Bit depth : 16 bits
Compression mode : Lossy
Stream size : 113 MiB (13%)
Alignment : Split accross interleaves
Interleave, duration : 42 ms (1.00 video frame)
Interleave, preload duratio : 500 ms
Service kind : Complete Main
скриншот  скриншот  скриншот  
pb.wtf



Скачать Маньяк через торрент http://i103.fastpic.ru/big/2018/0921/56/bfa158813896ec33e2bd770e7ae37056.jpg Скачать фильм Маньяк через торрент бесплантно в хорошем качестве Описание: Энни Лендсберг и Оуэн Милгрим — два незнакомца, согласившиеся принять участие в испытании нового фармацевтического средства. У ... 8.4 10 7
Info! Золотая раздача, скачанное не засчитывается.
Торрент: Зарегистрирован [2018-09-26 15:25] · скачан: 188 раз
Статус: √ проверено
Размер: 7.86 GB
Как cкачать? Как скачать Маньяк через торрент | qTorrent

% Раздел Тема Автор DL S | L
Зарубежные сериалы [ 5.32 GB ] Помешанный / Маньяк / Maniac / Сезон: 1 / Серии: 1-10 из 10 [2014 WEBRip 720p] MVO [Good People] bober100 Скачать
1 | 0
Зарубежные сериалы [ 2.45 GB ] Маньяк / Помешанный / Maniac / Сезон: 1 / Серии: 1-10 из 10 [2014 WEB-DLRip] MVO [Good People] bober100 Скачать
1 | 0
Зарубежные сериалы [ 7.89 GB ] Маньяк / Maniac / Сезон: 1 / Серии: 1-10 из 10 [2018 WEB-DL 720p] [DVO] killermax2013 Скачать
2 | 0
Зарубежные сериалы [ 6.38 GB ] Маньяк / Maniac / Сезон: 1 / Серии: 1-10 из 10 [2018 WEB-DLRip] [MVO] killermax2013 Скачать
1 | 0
Зарубежные сериалы [ 4.66 GB ] Маньяк / Maniac / Сезон: 1 / Серии: 1-10 из 10 [2018 WEBRip] MVO [LostFilm] bober100 Скачать
1 | 0
Зарубежные сериалы [ 36.81 GB ] Маньяк / Maniac / Сезон: 1 / Серии: 1-10 из 10 [2018 WEBRip 1080p] [MVO] killermax2013 Скачать
1 | 0
Зарубежные сериалы [ 13.32 GB ] Маньяк / Maniac / Сезон: 1 / Серии: 1-10 из 10 [2018 WEBRip 1080p] MVO [NewStudio] bober100 Скачать
1 | 0

28-11-2019 20:33  

Отключить всю рекламу на сайте

28-06-2020 10:06 Маньяк Скачать торрент  

Фильм, скажем так, на любителя. Пародия на "медицинские исследования" зачетная, но ответвления сюжета для повествований о бредовых переживаниях главных героев - по-моему, это перебор. Повествование затянуто, местами нелогично (последняя серия), серию "про эльфов" практически промотал (тошнота). Продолжения смотреть не стану, даже если оно будет.pb.wtf



    Дорогой пользователь! Огромная просьба, поблагодарите релизера, оцените раздачу и оставьте свои комментарий, если Вы скачали Маньяк через торрент бесплатно! Внесите свою лепту в развитие PiratBit!
    Комментировать посты могут только пользователи прошедшие не сложную регистрацию
    Показать сообщения:    

    Маньяк через торрент
    Скачать бесплатно Маньяк
    Маньяк скачать торрент
    Маньяк смотреть онлайн
    Cкачать фильм Маньяк бесплатно
    Маньяк скачать торрент в хорошем качестве
    Маньяк смотреть онлайн бесплатно в хорошем качестве


    Вы не можете начинать темы
    Вы не можете отвечать на сообщения
    Вы не можете редактировать свои сообщения
    Вы не можете удалять свои сообщения
    Вы не можете голосовать в опросах
    Вы не можете прикреплять файлы к сообщениям
    Вы можете скачивать файлы