Ссылка на приватное зеркало всего за 1$. Внимание количество ограничено!!!

iTunes

iTunes

iTunes

1

iTunes

iTunes

iTunes

WEBRip

iTunes

30
pack

$ от Little Big

ВАЖНО

!!Акция!!

Alien_RageХит недели

RePack

Resident Evil 21

ИГРА 18+

pack

RePack

jed

!!Акция!!

Alien_Rage

RePack

fifa19

RePack

Assassins Creed: Odyssey

RePack

NEED FOR SPEED™ PAYBACK

4 сезон

9 сезон

Бесстыжие 9 сезон

Все сериалы

все сериалы на PB.wtf

RePack

FAR CRY 5
  

На грани безумия / Spinning Man (Симон Кайзер) [2018 г., Триллер, драма, детектив, BDRip 1080p, HEVC, Дубляж (iTunes)] pb.wtf

На грани безумия через торрент pb.wtf

Размер: 4.31 GB | Добавлен: 1 год 10 мес. назад | Торрент скачан:160 раз
Скачать  

27-09-2018 05:54 На грани безумия Скачать торрент  

На грани безумия / Spinning Man
Год выпуска: 2018
Страна: Ирландия, Швеция, США
Жанр: Триллер, драма, детектив
Продолжительность: 01:40:36
Перевод: Дубляж iTunes
Субтитры: Английские

Режиссер: Симон Кайзер

rating

В ролях: Гай Пирс, Пирс Броснан, Минни Драйвер, Александра Шипп, Одейя Раш, Джейми Кеннеди, Кларк Грегг, Шон Блейкмор, Элиза Прайор, Ной Солсбери Липсон

Описание: Респектабельная жизнь профессора философии Эвана Берча начинает рушиться по мере того, как появляются подробности о его неподобающем поведении со студентками. В довершении ко всему герой становится центральным подозреваемым в деле об убийстве одной из слушательниц его курса.
Доп. информация: -
H.265/HEVC (High Efficiency Video Coding) - это новый стандарт кодирования видео.
- Стандарт H.265/HEVC является логическим продолжением стандарта
H.264/AVC (Advanced Video Coding), и характеризуется более эффективными
алгоритмами сжатия, а также поддержкой высокого разрешения вплоть до 8K UHD
(8192x4320). Первая версия стандарта H.265 была опубликована в начале 2013 года.
- Рипы в фомате HEVC поддерживается не всеми аппаратными проигрывателями.
- Для корректного воспроизведения может потребоваться обновление ПО.
- Владельцам несовместимого железа просьба не беспокоить,
есть альтернативные релизы.
Качество: BDRip 1080p
Формат: MKV
Видео кодек: H.265
Аудио кодек: AC3
Видео: 1920x804, ~5298 Kbps
Аудио#1: AC3, 6 ch, 384 Kbps (Дублированный)
Аудио#2: AC3, 6 ch, 448 Kbps (Оригинал)
Релиз от: Immortel
Общее
Уникальный идентификатор : 41085511612623286992448353744580935484 (0x1EE8C81E1D80432DD1BADCEF78B67F3C)
Полное имя : F:\РАЗДАЧИ\spinning man hevc 1080p.mkv
Формат : Matroska
Версия формата : Version 4 / Version 2
Размер файла : 4,31 Гбайт
Продолжительность : 1 ч. 40 м.
Общий поток : 6132 Кбит/сек
Название фильма : Spinning Man
Дата кодирования : UTC 2018-09-05 13:21:55
Программа кодирования : mkvmerge v22.0.0 ('At The End Of The World') 64-bit
Библиотека кодирования : libebml v1.3.5 + libmatroska v1.4.8

Видео
Идентификатор : 1
Формат : HEVC
Формат/Информация : High Efficiency Video Coding
Профиль формата : Main@L4@High
Идентификатор кодека : V_MPEGH/ISO/HEVC
Продолжительность : 1 ч. 40 м.
Битрейт : 5298 Кбит/сек
Ширина : 1920 пикселей
Высота : 804 пикселя
Соотношение сторон : 2,40:1
Режим частоты кадров : Постоянный
Частота кадров : 23,976 (24000/1001) кадра/сек
Цветовое пространство : YUV
Субдискретизация насыщенности : 4:2:0
Битовая глубина : 8 бит
Бит/(Пиксели*Кадры) : 0.143
Размер потока : 3,72 Гбайт (86%)
Заголовок : Spinning Man (2018) - Encoded by Immortel
Библиотека кодирования : x265 2.8+66-88ee12651e30:[Windows][MSVC 1915][64 bit] 8bit+10bit+12bit
Настройки программы : cpuid=1111039 / frame-threads=2 / numa-pools=4 / wpp / pmode / no-pme / no-psnr / no-ssim / log-level=2 / input-csp=1 / input-res=1920x804 / interlace=0 / total-frames=144721 / level-idc=40 / high-tier=1 / uhd-bd=0 / ref=4 / no-allow-non-conformance / no-repeat-headers / annexb / aud / hrd / info / hash=0 / no-temporal-layers / no-open-gop / min-keyint=24 / keyint=240 / gop-lookahead=0 / bframes=6 / b-adapt=2 / b-pyramid / bframe-bias=0 / rc-lookahead=60 / lookahead-slices=1 / scenecut=40 / radl=0 / no-intra-refresh / ctu=64 / min-cu-size=8 / no-rect / no-amp / max-tu-size=32 / tu-inter-depth=1 / tu-intra-depth=4 / limit-tu=0 / rdoq-level=0 / dynamic-rd=0.00 / no-ssim-rd / signhide / no-tskip / nr-intra=0 / nr-inter=0 / no-constrained-intra / no-strong-intra-smoothing / max-merge=5 / limit-refs=1 / no-limit-modes / me=2 / subme=4 / merange=57 / temporal-mvp / weightp / weightb / no-analyze-src-pics / deblock=0:0 / no-sao / no-sao-non-deblock / rd=4 / no-early-skip / no-rskip / no-fast-intra / no-tskip-fast / no-cu-lossless / no-b-intra / no-splitrd-skip / rdpenalty=0 / psy-rd=1.00 / psy-rdoq=0.00 / no-rd-refine / no-lossless / cbqpoffs=0 / crqpoffs=0 / rc=abr / bitrate=5300 / qcomp=0.60 / qpstep=4 / stats-write=0 / stats-read=2 / cplxblur=20.0 / qblur=0.5 / vbv-maxrate=30000 / vbv-bufsize=30000 / vbv-init=0.9 / ipratio=1.40 / pbratio=1.30 / aq-mode=2 / aq-strength=1.00 / no-cutree / zone-count=0 / no-strict-cbr / qg-size=64 / no-rc-grain / qpmax=69 / qpmin=0 / no-const-vbv / sar=1 / overscan=0 / videoformat=5 / range=0 / colorprim=1 / transfer=1 / colormatrix=1 / chromaloc=0 / display-window=0 / max-cll=0,0 / min-luma=0 / max-luma=255 / log2-max-poc-lsb=8 / vui-timing-info / vui-hrd-info / slices=1 / no-opt-qp-pps / no-opt-ref-list-length-pps / no-multi-pass-opt-rps / scenecut-bias=0.05 / no-opt-cu-delta-qp / no-aq-motion / no-hdr / no-hdr-opt / no-dhdr10-opt / no-idr-recovery-sei / analysis-reuse-level=5 / scale-factor=0 / refine-intra=0 / refine-inter=0 / refine-mv=0 / no-limit-sao / ctu-info=0 / no-lowpass-dct / refine-mv-type=0 / copy-pic=1 / max-ausize-factor=1.0 / no-dynamic-refine / no-single-sei
Default : Да
Forced : Да
Цветовой диапазон : Limited
Основные цвета : BT.709
Характеристики трансфера : BT.709
Коэффициенты матрицы : BT.709

Аудио #1
Идентификатор : 2
Формат : AC-3
Формат/Информация : Audio Coding 3
Идентификатор кодека : A_AC3
Продолжительность : 1 ч. 40 м.
Вид битрейта : Постоянный
Битрейт : 384 Кбит/сек
Каналы : 6 каналов
Расположение каналов : Front: L C R, Side: L R, LFE
Частота : 48,0 КГц
Частота кадров : 31,250 кадров/сек (1536 SPF)
Битовая глубина : 16 бит
Метод сжатия : С потерями
Размер потока : 276 Мбайт (6%)
Заголовок : Dubbing (iTunes)
Язык : Russian
ServiceKind/String : Complete Main
Default : Да
Forced : Да

Аудио #2
Идентификатор : 3
Формат : AC-3
Формат/Информация : Audio Coding 3
Идентификатор кодека : A_AC3
Продолжительность : 1 ч. 40 м.
Вид битрейта : Постоянный
Битрейт : 448 Кбит/сек
Каналы : 6 каналов
Расположение каналов : Front: L C R, Side: L R, LFE
Частота : 48,0 КГц
Частота кадров : 31,250 кадров/сек (1536 SPF)
Битовая глубина : 16 бит
Метод сжатия : С потерями
Размер потока : 322 Мбайт (7%)
Заголовок : Original
Язык : English
ServiceKind/String : Complete Main
Default : Нет
Forced : Нет

Текст
Идентификатор : 4
Формат : UTF-8
Идентификатор кодека : S_TEXT/UTF8
Идентификатор кодека/Информация : UTF-8 Plain Text
Продолжительность : 1 ч. 35 м.
Битрейт : 68 бит/сек
ElementCount : 1577
Размер потока : 48,0 Кбайт (0%)
Язык : English
Default : Нет
Forced : Нет

Меню
00:00:00.000 : en:Chapter 01
00:06:58.251 : en:Chapter 02
00:11:58.426 : en:Chapter 03
00:19:37.718 : en:Chapter 04
00:25:02.292 : en:Chapter 05
00:30:23.738 : en:Chapter 06
00:37:14.523 : en:Chapter 07
00:43:05.124 : en:Chapter 08
00:49:24.169 : en:Chapter 09
00:56:05.653 : en:Chapter 10
01:03:32.892 : en:Chapter 11
01:09:20.823 : en:Chapter 12
01:15:05.375 : en:Chapter 13
01:21:58.246 : en:Chapter 14
01:30:54.490 : en:Chapter 15
01:34:24.533 : en:Chapter 16

pb.wtf



Скачать На грани безумия через торрент https://a.radikal.ru/a32/1809/93/4219ee5db086.jpg Скачать фильм На грани безумия через торрент бесплантно в хорошем качестве Описание: Респектабельная жизнь профессора философии Эвана Берча начинает рушиться по мере того, как появляются подробности о его ... 10 10 4
Info! Золотая раздача, скачанное не засчитывается.
Торрент: Зарегистрирован [2018-09-27 05:54] · скачан: 160 раз
Статус: √ проверено
Размер: 4.31 GB
Как cкачать? Как скачать На грани безумия через торрент | qTorrent

% Раздел Тема Автор DL S | L
Фильмы 2018 [DVDrip, WEB-DLRip, HDrip] (DUB, MVO) [ 1.41 GB ] На грани безумия / Spinning Man [2018 BDRip] - Twi7ter Скачать
1 | 0
Фильмы [HD 720p, 1080p] (Хороший звук DUB, MVO) [ 7.74 GB ] На грани безумия / Spinning Man [2018 BDRip 1080p] bober100 Скачать
1 | 0
Фильмы 2018 [DVDrip, WEB-DLRip, HDrip] (DUB, MVO) [ 1.42 GB ] На грани безумия / Spinning Man [2018 BDRip] bober100 Скачать
2 | 0
Фильмы [HD 720p, 1080p] (Хороший звук DUB, MVO) [ 4.23 GB ] На грани безумия / Spinning Man [2018 BDRip 720p] bober100 Скачать
1 | 0
Фильмы 2018 [DVDrip, WEB-DLRip, HDrip] (DUB, MVO) [ 2.17 GB ] На грани безумия / Spinning Man [2018 BDRip-AVC] bober100 Скачать
1 | 0
Фильмы (Blu-ray, BD-Remux, HDDVD) [ 16.6 GB ] На грани безумия / Spinning Man [2018 BD Remux 1080p] bober100 Скачать
1 | 0

28-11-2019 20:33  

Отключить всю рекламу на сайте

08-11-2018 20:41 На грани безумия Скачать торрент  

Очень интересный фильм, держит в напряжении до самого концаpb.wtf



    Дорогой пользователь! Огромная просьба, поблагодарите релизера, оцените раздачу и оставьте свои комментарий, если Вы скачали На грани безумия через торрент бесплатно! Внесите свою лепту в развитие PiratBit!
    Комментировать посты могут только пользователи прошедшие не сложную регистрацию
    Показать сообщения:    

    На грани безумия через торрент
    Скачать бесплатно На грани безумия
    На грани безумия скачать торрент
    На грани безумия смотреть онлайн
    Cкачать фильм На грани безумия бесплатно
    На грани безумия скачать торрент в хорошем качестве
    На грани безумия смотреть онлайн бесплатно в хорошем качестве


    Вы не можете начинать темы
    Вы не можете отвечать на сообщения
    Вы не можете редактировать свои сообщения
    Вы не можете удалять свои сообщения
    Вы не можете голосовать в опросах
    Вы не можете прикреплять файлы к сообщениям
    Вы можете скачивать файлы