Ссылка на приватное зеркало нашего сайта всего за 1$. Внимание количество ограничено!!!

2 сезон

iTunes

1 сезон

1

2 сезон

2 сезон

iTunes

1 сезон

RePack

30

Ultimate

ВАЖНО

ИГРА 18+

pack

RePack

MK11
pack

Забери бонус

RePack

jed

!!Акция!!

Alien_Rage

RePack

fifa19

RePack

Assassins Creed: Odyssey

RePack

NEED FOR SPEED™ PAYBACK

4 сезон

9 сезон

Бесстыжие 9 сезон

Все сериалы

все сериалы на PB.wtf

RePack

FAR CRY 5
  

Частный детектив Магнум / Magnum P.I. / Сезон: 1 / Серии: 1-20 из 20 (Сет Гордон) [2018, Боевик, криминал, приключения, WEB-DL 720p] MVO [Jaskier] pb.wtf

Частный детектив Магнум через торрент pb.wtf

Размер: 34.13 GB | Добавлен: 1 год 4 мес. назад | Торрент скачан:4 раза
Скачать  

27-09-2018 10:33 Частный детектив Магнум Скачать торрент  

Частный детектив Магнум / Magnum P.I.
Год выпуска: 2018
Страна: США
Жанр: Боевик, криминал, приключения
Продолжительность: 00:45:00
Перевод: Профессиональный (многоголосый) | Jaskier
Субтитры: отсутствуют

Режиссер: Сет Гордон

rating

В ролях: Джей Эрнандес, Пердита Викс, Стефен Хилл, Захари Найтон, Сон Ган, Кими Бальмилеро, Майкл Беняер, Джек Катмор-Скотт, Фэйт Фэй

Описание: Сюжет сериала отправляет зрителей на Гавайи, где солнечно, тепло, но не так безопасно, как хотелось бы. Преступления случаются даже в таких райских уголках, поэтому здесь находится место для выдающегося детектива Томаса Магнума, который ведет расследования различной сложности. Не так давно Томас вернулся после затянувшейся поездки в Афганистан. Он устроился детективом. Вместе с коллегами Теодором Кельвином и Орвилом Райтом Магнуму предстоит работать над раскрытием преступлений на солнечном американском острове. Однако помимо работы главному персонажу предстоит решить вопросы с людьми из прошлого.

Качество: WEB-DL 720p
Формат: MKV

Видео: 1280x720 (16:9) | X264 | ~5374 kbps | 23.976 fps
Аудио#1: AC3, 48,0 КГц, 6 ch, 384 kbps - [RUS]
Аудио#2: AC3, 48,0 КГц, 6 ch, 384 kbps - [ENG]
скриншот  скриншот  скриншот  

Общее
Уникальный идентификатор : 14502753784127838696868084723918726416 (0xAE920F7A74C9B0F6A8707867ABE6510)
Полное имя : E:\Magnum.P.I Season 1 (WEB-DL l 720p l Jaskier)\Magnum.P.I.2018.S01E01.WEB-DL.720p.Jaskier.mkv
Формат : Matroska
Версия формата : Version 4 / Version 2
Размер файла : 1,84 Гбайт
Продолжительность : 42 м. 56 с.
Общий поток : 6144 Кбит/сек
Дата кодирования : UTC 2018-09-27 09:34:43
Программа кодирования : mkvmerge v19.0.0 ('Brave Captain') 64-bit
Библиотека кодирования : libebml v1.3.5 + libmatroska v1.4.8

Видео
Идентификатор : 1
Формат : AVC
Формат/Информация : Advanced Video Codec
Профиль формата : High@L4.1
Настройки формата : CABAC / 9 Ref Frames
Параметр CABAC формата : Да
Параметр RefFrames формата : 9 кадров
Идентификатор кодека : V_MPEG4/ISO/AVC
Продолжительность : 42 м. 56 с.
Битрейт : 5374 Кбит/сек
Ширина : 1280 пикселей
Высота : 720 пикселей
Соотношение сторон : 16:9
Режим частоты кадров : Постоянный
Частота кадров : 23,976 (24000/1001) кадра/сек
Цветовое пространство : YUV
Субдискретизация насыщенности : 4:2:0
Битовая глубина : 8 бит
Тип развёртки : Прогрессивная
Бит/(Пиксели*Кадры) : 0.243
Размер потока : 1,61 Гбайт (87%)
Библиотека кодирования : x264 core 148 r2744 b97ae06
Настройки программы : cabac=1 / ref=9 / deblock=1:-3:-3 / analyse=0x3:0x133 / me=umh / subme=10 / psy=1 / psy_rd=1.00:0.00 / mixed_ref=1 / me_range=48 / chroma_me=1 / trellis=2 / 8x8dct=1 / cqm=0 / deadzone=21,11 / fast_pskip=1 / chroma_qp_offset=-2 / threads=12 / lookahead_threads=2 / sliced_threads=0 / nr=0 / decimate=0 / interlaced=0 / bluray_compat=0 / constrained_intra=0 / bframes=8 / b_pyramid=2 / b_adapt=2 / b_bias=0 / direct=3 / weightb=1 / open_gop=0 / weightp=2 / keyint=240 / keyint_min=23 / scenecut=40 / intra_refresh=0 / rc=crf / mbtree=0 / crf=17.0 / qcomp=0.60 / qpmin=0 / qpmax=69 / qpstep=4 / ip_ratio=1.40 / pb_ratio=1.30 / aq=3:0.70
Язык : English
Default : Да
Forced : Нет

Аудио #1
Идентификатор : 2
Формат : AC-3
Формат/Информация : Audio Coding 3
Идентификатор кодека : A_AC3
Продолжительность : 42 м. 56 с.
Вид битрейта : Постоянный
Битрейт : 384 Кбит/сек
Каналы : 6 каналов
Расположение каналов : Front: L C R, Side: L R, LFE
Частота : 48,0 КГц
Частота кадров : 31,250 кадров/сек (1536 SPF)
Битовая глубина : 16 бит
Метод сжатия : С потерями
Размер потока : 118 Мбайт (6%)
Язык : Russian
ServiceKind/String : Complete Main
Default : Да
Forced : Нет

Аудио #2
Идентификатор : 3
Формат : AC-3
Формат/Информация : Audio Coding 3
Идентификатор кодека : A_AC3
Продолжительность : 42 м. 56 с.
Вид битрейта : Постоянный
Битрейт : 384 Кбит/сек
Каналы : 6 каналов
Расположение каналов : Front: L C R, Side: L R, LFE
Частота : 48,0 КГц
Частота кадров : 31,250 кадров/сек (1536 SPF)
Битовая глубина : 16 бит
Метод сжатия : С потерями
Размер потока : 118 Мбайт (6%)
Язык : Dutch
ServiceKind/String : Complete Main
Default : Нет
Forced : Нет

Внимание! Раздача ведётся путём добавления новых серий; при каждом добавлении создfётся новый торрент. Чтобы начать докачку новой серии, пользователям необходимо сделать следующее: (1) остановить скачивание, (2) удалить старый торрент у себя из клиента (старые серии удалять не надо), (3) скачать новый торрент и запустить его у себя в клиенте вместо старого, при этом указать клиенту путь в старую папку куда и должно происходить скачивание новых серий.

Ваш клиент при этом должен произвести хеширование (проверку) старой папки (если не производит сам - помогите ему сделать это), и будет докачивать только те серии которых у вас ещё нет. Старые серии при этом не удаляются, а продолжают раздаваться!

Eсли вы уже удалили старые серии, то предотвратить повторную закачку старых серий можно, отжав галочку в соответсвующих местах при запуске нового торрента.
pb.wtf



Скачать Частный детектив Магнум через торрент http://i89.fastpic.ru/big/2018/0927/f6/4a8c4a60e384327497bbca815bfcfaf6.png Скачать фильм Частный детектив Магнум через торрент бесплантно в хорошем качестве Описание: Сюжет сериала отправляет зрителей на Гавайи, где солнечно, тепло, но не так безопасно, как хотелось бы. Преступления случаются ... 6.8 10 4
Торрент: Зарегистрирован [2019-07-23 15:50] · скачан: 4 раз
Статус: √ проверено
Размер: 34.13 GB
Как cкачать? Как скачать Частный детектив Магнум через торрент | qTorrent

% Раздел Тема Автор DL S | L
Зарубежные сериалы [ 12.05 GB ] Частный Магнум / Magnum P.I. / Сезон: 2 / Серии: 1-20 из 20 [2019 WEB-DLRip] MVO [TVShows] bober100 Скачать
1 | 0
Зарубежные сериалы [ 25.73 GB ] Частный Магнум / Magnum P.I. / Сезон: 2 / Серии: 1-13 из 20 [2019 WEB-DL 720p] MVO [TVShows] bober100 Скачать
1 | 0
Зарубежные сериалы [ 45.98 GB ] Частный Магнум / Magnum P.I. / Сезон: 2 / Серии: 1-14 из 20 [2019 WEB-DL 1080p] MVO [TVShows] bober100 Скачать
1 | 0
Зарубежные сериалы [ 67.08 GB ] Частный Магнум / Magnum P.I. / Сезон: 1 / Серии: 1-18 из 20 [2018 WEB-DL 1080p] MVO [Jaskier] bober100 Скачать
1 | 0
Зарубежные сериалы [ 10.76 GB ] Частный Магнум / Magnum P.I. / Сезон: 1 / Серии: 1-20 из 20 [2018 WEB-DLRip] MVO [Jaskier] bober100 Скачать
1 | 0

28-11-2019 20:33  

Отключить всю рекламу на сайте

    Дорогой пользователь! Огромная просьба, поблагодарите релизера, оцените раздачу и оставьте свои комментарий, если Вы скачали Частный детектив Магнум через торрент бесплатно! Внесите свою лепту в развитие PiratBit!
    Комментировать посты могут только пользователи прошедшие не сложную регистрацию
    Показать сообщения:    

    Частный детектив Магнум через торрент
    Скачать бесплатно Частный детектив Магнум
    Частный детектив Магнум скачать торрент
    Частный детектив Магнум смотреть онлайн
    Cкачать фильм Частный детектив Магнум бесплатно
    Частный детектив Магнум скачать торрент в хорошем качестве
    Частный детектив Магнум смотреть онлайн бесплатно в хорошем качестве


    Вы не можете начинать темы
    Вы не можете отвечать на сообщения
    Вы не можете редактировать свои сообщения
    Вы не можете удалять свои сообщения
    Вы не можете голосовать в опросах
    Вы не можете прикреплять файлы к сообщениям
    Вы можете скачивать файлы