Ссылка на приватное зеркало всего за 1$. Внимание количество ограничено!!!

OK

1+1

iTunes

мы

OK

1

WEB-DLRip

Джокер

Пифагор

Ведьмак / The Witcher сериал

Лицензия

ПШазам

ОК

Оно 2

iTunes

30
pack

Вам бонус

ВАЖНО

!!Акция!!

Alien_RageХит недели

RePack

Resident Evil 21

ИГРА 18+

pack

RePack

jed

!!Акция!!

Alien_Rage

RePack

fifa19

RePack

Assassins Creed: Odyssey

RePack

NEED FOR SPEED™ PAYBACK

4 сезон

9 сезон

Бесстыжие 9 сезон

Все сериалы

все сериалы на PB.wtf

RePack

FAR CRY 5
  

Царевны / Cезон 1-2 / Cерии 1-38 из 52 (Елена Галдобина, Константин Бронзит) [2018 - 2019 г., Детский, Компьютерная анимация, WEB-DL 720p, Не требуется Русский] pb.wtf

Царевны через торрент pb.wtf

Размер: 4.89 GB | Добавлен: 1 мес. 11 д. назад | Торрент скачан:13 раз
Скачать  

27-09-2018 14:18 Царевны Скачать торрент  

Царевны
Год выпуска: 2018-2019
Страна: Россия/ Анимационная студия «Мельница»
Жанр: Детский, Компьютерная анимация
Продолжительность: 52 х ~ 00:06:30
Перевод: Не требуется Русский
Субтитры: Отсутствуют

Режиссер: Елена Галдобина, Константин Бронзит



В ролях: Варя, Соня, Даша, Василиса, Алёнка, Кощей, Кот, Марлен, Сова, Баба Яга, Арчи

Описание: Они не волшебницы, они еще только учатся! Анимационный сериал «Царевны» расскажет о приключениях пяти героинь русских народных сказок, каждая из которых обладает особенным даром, но пока не знает, как им управлять. Василиса Царевна-Лягушка, Царевна Варвара-Краса Длинная Коса, Спящая Царевна Соня, Дарья Царевна-Несмеяна и Царевна Елена Прекрасная отправляются на сказочный остров Дивногорье. Там, в школе волшебства Кощея Бессмертного, они будут обучаться всем тонкостям магии и творить всевозможные чудеса. Оказывается, что быть настоящей царевной не так-то просто! Таинственное древо знаний, привидения-проказники, говорящий кот — какие еще сюрпризы ждут девочек...
00. Песня
01. Юные волшебницы
02. Дивногорье и его обитатели
03. Первый урок
04. Гребешок
05. Огненные шарики
06. Шутка
07. Трон директора
08. Царевна-лягушка
09. Волшебные заколки
10. Тетрадь желаний
11. Уборка с Егоркой
12. Туманный лабиринт
13. Знакомство с Арчи
14. Недостающий элемент
15. Лента Мёбиуса
16. Пятница, тринадцатое
17. Заклятие невидимости
18. Генератор волшебных заданий
19. Загадочная стена
20. Чудодейственные травы
21. Занимательная аэродинамика
22. Черная рука
23. Волшебница воды
24. Шапочка профессора
25. Небесный бадминтон
26. Ледяной плен
СЕЗОН 2
27. Сон Марлен
28. Секрет
29. Урок волшебной ботаники
30. Прятки
31. Орех-незабудка
32. Философский вопрос
33. Рыцарь ордена заколки
34. Птица поюн
35. Выходной
36. Вечная тьма
37. Колдуем вместе
38. Волшебная мастерская
Качество: WEB-DL 720p
Формат: MKV
Видео кодек: H.264
Аудио кодек: AAC
Видео: AVC/H.264, 1280x720, ~2500 kbps
Аудио#1: AAC, 2 ch, 128 kbps
скриншот   скриншот   скриншот   скриншот  

General
Unique ID : 270619784337919104679968068252334523281 (0xCB977980B2482B80069E6E8214F78391)
Complete name : C:\02_Дивногорье и его обитатели.mkv
Format : Matroska
Format version : Version 4 / Version 2
File size : 115 MiB
Duration : 6 min 30 s
Overall bit rate : 2 464 kb/s
Encoded date : UTC 2018-09-07 05:55:23
Writing application : mkvmerge v26.0.0 ('In The Game') 32-bit
Writing library : libebml v1.3.6 + libmatroska v1.4.9

Video
ID : 1
Format : AVC
Format/Info : Advanced Video Codec
Format profile : High@L4.1
Format settings : CABAC / 5 Ref Frames
Format settings, CABAC : Yes
Format settings, ReFrames : 5 frames
Codec ID : V_MPEG4/ISO/AVC
Duration : 6 min 30 s
Bit rate : 2 330 kb/s
Width : 1 280 pixels
Height : 720 pixels
Display aspect ratio : 16:9
Frame rate mode : Constant
Frame rate : 25.000 FPS
Color space : YUV
Chroma subsampling : 4:2:0
Bit depth : 8 bits
Scan type : Progressive
Bits/(Pixel*Frame) : 0.152
Stream size : 113 MiB (96%)
Writing library : x264 core 148
Default : Yes
Forced : No

Audio
ID : 2
Format : AAC LC
Format/Info : Advanced Audio Codec Low Complexity
Codec ID : A_AAC-2
Duration : 6 min 30 s
Bit rate : 128 kb/s
Channel(s) : 2 channels
Channel layout : L R
Sampling rate : 44.1 kHz
Frame rate : 43.066 FPS (1024 SPF)
Compression mode : Lossy
Delay relative to video : -80 ms
Stream size : 5.95 MiB (4%)
Default : Yes
Forced : No

Внимание! Раздача ведётся путём добавления новых серий; при каждом добавлении создётся новый торрент. Чтобы начать докачку новой серии, пользователям необходимо сделать следующее:
  • Остановить скачивание,
  • Удалить старый торрент у себя из клиента (старые серии удалять не надо),
  • Скачать новый торрент и запустить его у себя в клиенте вместо старого, при этом указать клиенту путь в старую папку куда и должно происходить скачивание новых серий.
Ваш клиент при этом должен произвести хеширование (проверку) старой папки (если не производит сам - помогите ему сделать это), и будет докачивать только те серии которых у вас ещё нет. Старые серии при этом не удаляются, а продолжают раздаваться!

Eсли вы уже удалили старые серии, то предотвратить повторную закачку старых серий можно, отжав галочку в соответсвующих местах при запуске нового торрента. По возможности, желательно не удалять старые серии как можно дольше чтобы релизёр не столько продолжал раздавать старые серии, а смог сконцентрироваться на новых.
pb.wtf



Скачать Царевны через торрент http://pic1.kartinco.top/images/11/36td2.jpg Скачать фильм Царевны через торрент бесплантно в хорошем качестве Описание: Они не волшебницы, они еще только учатся! Анимационный сериал «Царевны» расскажет о приключениях пяти героинь русских народных ... 9.3 10 11
Торрент: Зарегистрирован [2019-12-09 05:26] · скачан: 13 раз
Статус: √ проверено
Размер: 4.89 GB
Как cкачать? Как скачать Царевны через торрент | qTorrent



Последний раз редактировалось: oleg8 (2019-12-09 05:31), всего редактировалось 12 раз(а)

28-11-2019 20:33  

Отключить всю рекламу на сайте

09-12-2019 05:27 Царевны Скачать торрент  

Добавленны:
СЕЗОН 2
27. Сон Марлен
28. Секрет
29. Урок волшебной ботаники
30. Прятки
31. Орех-незабудка
32. Философский вопрос
33. Рыцарь ордена заколки
34. Птица поюн
35. Выходной
36. Вечная тьма
37. Колдуем вместе
38. Волшебная мастерскаяpb.wtf



    Дорогой пользователь! Огромная просьба, поблагодарите релизера, оцените раздачу и оставьте свои комментарий, если Вы скачали Царевны через торрент бесплатно! Внесите свою лепту в развитие PiratBit!
    Комментировать посты могут только пользователи прошедшие не сложную регистрацию
    Показать сообщения:    

    Царевны через торрент
    Скачать бесплатно Царевны
    Царевны скачать торрент
    Царевны смотреть онлайн
    Cкачать фильм Царевны бесплатно
    Царевны скачать торрент в хорошем качестве
    Царевны смотреть онлайн бесплатно в хорошем качестве


    Вы не можете начинать темы
    Вы не можете отвечать на сообщения
    Вы не можете редактировать свои сообщения
    Вы не можете удалять свои сообщения
    Вы не можете голосовать в опросах
    Вы не можете прикреплять файлы к сообщениям
    Вы можете скачивать файлы