Ссылка на приватное зеркало всего за 1$. Внимание количество ограничено!!!

OK

1+1

iTunes

мы

OK

1

WEB-DLRip

Джокер

Пифагор

Ведьмак / The Witcher сериал

iTunes

ПШазам

ОК

Оно 2

iTunes

30
pack

Вам бонус

ВАЖНО

!!Акция!!

Alien_RageХит недели

RePack

Resident Evil 21

ИГРА 18+

pack

RePack

jed

RePack

fifa19

RePack

Assassins Creed: Odyssey

RePack

NEED FOR SPEED™ PAYBACK

4 сезон

9 сезон

Бесстыжие 9 сезон

Все сериалы

все сериалы на PB.wtf

RePack

FAR CRY 5
  

Телекинез / Yeomryeok (Ён Сан-хо) [2018 г., Комедия, фантастика, боевик, WEB-DLRip, Любительский (многоголосый) (Колобок)] pb.wtf

Телекинез через торрент pb.wtf

Размер: 1.39 GB | Добавлен: 1 год 4 мес. назад | Торрент скачан:236 раз
Скачать  

28-09-2018 02:00 Телекинез Скачать торрент  

Телекинез / Yeomryeok
Год выпуска: 2018
Страна: Корея Южная
Жанр: Комедия, фантастика, боевик
Продолжительность: 01:38:52
Перевод: Любительский (многоголосый)(Колобок)
Субтитры: Отсутствуют

Режиссер: Ён Сан-хо

rating

В ролях: Рю Сын-рён, Щим Ын-гён, Пак Чон-мин, Ким Мин-джэ, Чон Ю-ми, Ю Сын-мок, Ли Джон-ын, Ким Ён-сон, Е Су-джон, Тхэ Хан-хо

Описание: Во время утренней прогулки простой охранник Щин Сок-хён попил воды из горного ручья. Весь день у него болел живот, а вечером, заложив за воротник, мужчина обнаружил у себя необычные способности - теперь он может управлять предметами на расстоянии. Тем временем у его дочери Ру-ми, которую он оставил много лет назад, проблемы. Здание, где она держит ресторан, попало в зону реконструкции, и во время очередной стычки с рабочими погибает её мать. Узнав о смерти бывшей жены и ситуации дочери, Сок-хён решает помочь.

Доп. информация: Присутствуют вставки текстовой рекламы

Качество: WEB-DLRip
Формат: AVI
Видео кодек: XviD
Аудио кодек: AC3
Видео: XviD, 720x304, ~1622 Kbps
Аудио#1: AC-3, 2 ch, 384 Kbps
скриншот   скриншот   скриншот   скриншот  

Общее
Полное имя : C:\_Cinema 2\Телекинез\Yeom-lyeok 2017 WEB-DLRip.avi
Формат : AVI
Формат/Информация : Audio Video Interleave
Профиль формата : OpenDML
Размер файла : 1,39 Гбайт
Продолжительность : 1 ч. 38 м.
Общий поток : 2018 Кбит/сек

Видео
Идентификатор : 0
Формат : MPEG-4 Visual
Профиль формата : Advanced Simple@L5
Параметр BVOP формата : 2
Параметр QPel формата : Нет
Параметр GMC формата : Без точки перехода
Параметр матрицы формата : Default (H.263)
Идентификатор кодека : XVID
Идентификатор кодека/Подсказка : XviD
Продолжительность : 1 ч. 38 м.
Битрейт : 1622 Кбит/сек
Ширина : 720 пикселей
Высота : 304 пикселя
Соотношение сторон : 2,35:1
Частота кадров : 23,976 (24000/1001) кадра/сек
Цветовое пространство : YUV
Субдискретизация насыщенности : 4:2:0
Битовая глубина : bit0
Тип развёртки : Прогрессивная
Метод сжатия : С потерями
Бит/(Пиксели*Кадры) : 0.309
Размер потока : 1,12 Гбайт (80%)
Библиотека кодирования : XviD 1.2.1 (UTC 2008-12-04)

Аудио
Идентификатор : 1
Формат : AC-3
Формат/Информация : Audio Coding 3
Расширение режима : CM (complete main)
Параметр Endianness формата : Big
Идентификатор кодека : 2000
Продолжительность : 1 ч. 38 м.
Вид битрейта : Постоянный
Битрейт : 384 Кбит/сек
Каналы : 2 канала
Расположение каналов : Front: L R
Частота : 48,0 КГц
Частота кадров : 31,250 кадров/сек (1536 spf)
Метод сжатия : С потерями
Размер потока : 272 Мбайт (19%)
Выравнивание : Соединение по промежуткам
Продолжительность промежутка : 32 мс. (0,77 видеокадр)

pb.wtf



Скачать Телекинез через торрент http://pic1.kartinco.top/images/11/k4dui.jpg Скачать фильм Телекинез через торрент бесплантно в хорошем качестве Описание: Во время утренней прогулки простой охранник Щин Сок-хён попил воды из горного ручья. Весь день у него болел живот, а вечером, ... 10 10 5
Info! Золотая раздача, скачанное не засчитывается.
Торрент: Зарегистрирован [2018-09-28 02:00] · скачан: 236 раз
Статус: T временная
Размер: 1.39 GB
Как cкачать? Как скачать Телекинез через торрент | qTorrent

28-11-2019 20:33  

Отключить всю рекламу на сайте

    Дорогой пользователь! Огромная просьба, поблагодарите релизера, оцените раздачу и оставьте свои комментарий, если Вы скачали Телекинез через торрент бесплатно! Внесите свою лепту в развитие PiratBit!
    Комментировать посты могут только пользователи прошедшие не сложную регистрацию
    Показать сообщения:    

    Телекинез через торрент
    Скачать бесплатно Телекинез
    Телекинез скачать торрент
    Телекинез смотреть онлайн
    Cкачать фильм Телекинез бесплатно
    Телекинез скачать торрент в хорошем качестве
    Телекинез смотреть онлайн бесплатно в хорошем качестве


    Вы не можете начинать темы
    Вы не можете отвечать на сообщения
    Вы не можете редактировать свои сообщения
    Вы не можете удалять свои сообщения
    Вы не можете голосовать в опросах
    Вы не можете прикреплять файлы к сообщениям
    Вы можете скачивать файлы