Ссылка на приватное зеркало всего за 1$. Внимание количество ограничено!!!

OK

1+1

iTunes

мы

OK

1

WEB-DLRip

Джокер

Пифагор

Ведьмак / The Witcher сериал

iTunes

ПШазам

ОК

Оно 2

iTunes

30
pack

Вам бонус

ВАЖНО

!!Акция!!

Alien_RageХит недели

RePack

Resident Evil 21

ИГРА 18+

pack

RePack

jed

RePack

fifa19

RePack

Assassins Creed: Odyssey

RePack

NEED FOR SPEED™ PAYBACK

4 сезон

9 сезон

Бесстыжие 9 сезон

Все сериалы

все сериалы на PB.wtf

RePack

FAR CRY 5
  

Восьмой класс / Eighth Grade (Бо Бёрнэм) [2018 г., Драма, комедия, WEB-DL 720p, Любительский (многоголосый) (Синема УС)] pb.wtf

Восьмой класс через торрент pb.wtf

Размер: 3.14 GB | Добавлен: 1 год 3 мес. назад | Торрент скачан:136 раз
Скачать  

28-09-2018 02:13 Восьмой класс Скачать торрент  

Восьмой класс / Eighth Grade
Год выпуска: 2018
Страна: США / A24
Жанр: Драма, комедия
Продолжительность: 01:33:16
Перевод: Любительский (многоголосый)(Синема УС)
Субтитры: Отсутствуют

Режиссер: Бо Бёрнэм

rating

В ролях: Элси Фишер, Джош Хэмилтон, Эмили Робинсон, Джейк Шлойтер, Дэниэл Золгадри, Фред Хехингер, Имани Льюис, Люк Прэйл, Кэтрин Оливье, Нора Маллинс

Описание: 13-летняя Кейла переживает переходный период своей юности. Ей предстоит вынести еще одну неделю кошмарного восьмого класса и перейти в старшую школу — впрочем, и новая жизнь обещает много непредсказуемого.

Доп. информация: Присутствуют вставки текстовой рекламы

Качество: WEB-DL 720p
Формат: MKV
Видео кодек: H.264
Аудио кодек: AC3
Видео: AVC/H.264, 1280x686, ~4345 Kbps
Аудио#1: AC-3, 48.0 KHz, 2 ch, 384 Kbps
скриншот   скриншот   скриншот   скриншот  

Общее
Полное имя : E:\NNM\_\Восьмой класс\Eighth Grade 2018 WEB-DLRip 720p-LQ.mkv
Формат : Matroska
Версия формата : Version 2
Размер файла : 3,14 Гбайт
Продолжительность : 1 ч. 33 м.
Режим общего битрейта : Переменный
Общий поток : 4825 Кбит/сек
Программа кодирования : libmatroska 1.4.1

Видео
Идентификатор : 1
Формат : AVC
Формат/Информация : Advanced Video Codec
Профиль формата : High@L4.1
Настройки формата : CABAC / 4 Ref Frames
Параметр CABAC формата : Да
Параметр RefFrames формата : 4 кадра
Идентификатор кодека : V_MPEG4/ISO/AVC
Продолжительность : 1 ч. 33 м.
Вид битрейта : Переменный
Битрейт : 4345 Кбит/сек
Максимальный битрейт : 5000 Кбит/сек
Ширина : 1280 пикселей
Высота : 686 пикселей
Соотношение сторон : 1,85:1
Режим частоты кадров : Постоянный
Частота кадров : 23,976 (24000/1001) кадра/сек
Стандарт вещания : Component
Цветовое пространство : YUV
Субдискретизация насыщенности : 4:2:0
Битовая глубина : 8 бит
Тип развёртки : Прогрессивная
Бит/(Пиксели*Кадры) : 0.206
Размер потока : 2,83 Гбайт (90%)
Default : Нет
Forced : Нет
Цветовой диапазон : Limited
Основные цвета : BT.709
Характеристики трансфера : BT.709
Коэффициенты матрицы : BT.709

Аудио
Идентификатор : 2
Формат : AC-3
Формат/Информация : Audio Coding 3
Идентификатор кодека : A_AC3
Продолжительность : 1 ч. 33 м.
Вид битрейта : Постоянный
Битрейт : 384 Кбит/сек
Каналы : 2 канала
Расположение каналов : Front: L R
Частота : 48,0 КГц
Частота кадров : 31,250 кадров/сек (1536 SPF)
Битовая глубина : 16 бит
Метод сжатия : С потерями
Размер потока : 256 Мбайт (8%)
ServiceKind/String : Complete Main
Default : Нет
Forced : Нет

pb.wtf



Скачать Восьмой класс через торрент http://pic1.kartinco.top/images/11/1szqv.jpg Скачать фильм Восьмой класс через торрент бесплантно в хорошем качестве Описание: 13-летняя Кейла переживает переходный период своей юности. Ей предстоит вынести еще одну неделю кошмарного восьмого класса и ... 8.6 10 5
Торрент: Зарегистрирован [2018-09-28 02:13] · скачан: 136 раз
Статус: T временная
Размер: 3.14 GB
Как cкачать? Как скачать Восьмой класс через торрент | qTorrent

% Раздел Тема Автор DL S | L
Фильмы 2018 [DVDrip, WEB-DLRip, HDrip] (DUB, MVO) [ 746 MB ] Восьмой класс / Eighth Grade [2018 BDRip-AVC] [MVO] killermax2013 Скачать
1 | 0
Фильмы 2018 [DVDrip, WEB-DLRip, HDrip] (DUB, MVO) [ 1.42 GB ] Восьмой класс / Eighth Grade [2018 BDRip] [MVO] killermax2013 Скачать
3 | 0
Фильмы без перевода [ 1.46 GB ] Восьмой класс / Eighth Grade [2018 подростковая HDRip] [Sub Rus] killermax2013 Скачать
1 | 0

28-11-2019 20:33  

Отключить всю рекламу на сайте

    Дорогой пользователь! Огромная просьба, поблагодарите релизера, оцените раздачу и оставьте свои комментарий, если Вы скачали Восьмой класс через торрент бесплатно! Внесите свою лепту в развитие PiratBit!
    Комментировать посты могут только пользователи прошедшие не сложную регистрацию
    Показать сообщения:    

    Восьмой класс через торрент
    Скачать бесплатно Восьмой класс
    Восьмой класс скачать торрент
    Восьмой класс смотреть онлайн
    Cкачать фильм Восьмой класс бесплатно
    Восьмой класс скачать торрент в хорошем качестве
    Восьмой класс смотреть онлайн бесплатно в хорошем качестве


    Вы не можете начинать темы
    Вы не можете отвечать на сообщения
    Вы не можете редактировать свои сообщения
    Вы не можете удалять свои сообщения
    Вы не можете голосовать в опросах
    Вы не можете прикреплять файлы к сообщениям
    Вы можете скачивать файлы