Ссылка на приватное зеркало всего за 1$. Внимание количество ограничено!!!

OK

1+1

iTunes

мы

OK

1

WEB-DLRip

Джокер

Пифагор

Ведьмак / The Witcher сериал

Лицензия

ПШазам

ОК

Оно 2

iTunes

30
pack

Вам бонус

ВАЖНО

!!Акция!!

Alien_RageХит недели

RePack

Resident Evil 21

ИГРА 18+

pack

RePack

jed

!!Акция!!

Alien_Rage

RePack

fifa19

RePack

Assassins Creed: Odyssey

RePack

NEED FOR SPEED™ PAYBACK

4 сезон

9 сезон

Бесстыжие 9 сезон

Все сериалы

все сериалы на PB.wtf

RePack

FAR CRY 5
  

Высокое напряжение / Hollow Body (Алекс Келеджиан) [2018 г., Ужасы, Триллер, WEB-DLRip, Любительский (многоголосый) (Синема УС)] pb.wtf

Высокое напряжение через торрент pb.wtf

Размер: 1.32 GB | Добавлен: 1 год 3 мес. назад | Торрент скачан:74 раза
Скачать  

28-09-2018 02:27 Высокое напряжение Скачать торрент  

Высокое напряжение / Hollow Body
Год выпуска: 2018
Страна: США / Sword Entertainment
Жанр: Ужасы, Триллер
Продолжительность: 01:30:57
Перевод: Любительский (многоголосый)(Синема УС)
Субтитры: Отсутствуют

Режиссер: Алекс Келеджиан

rating

В ролях: Дэвид Аркетт, Люк Уилсон, Элли Гонино, Райан Доноху, Перри Ривз, Эрик Стоклин, Элизабет Райс, Бекка Уокер, Грэйс Бэннон, Р. Брэндон Джонсон и др.

Описание: Старый музыкант Джимми собирает группу из молодых и талантливых ребят. Но возникает проблема: солистка слишком застенчива, чтобы выступать перед большой публикой. Один удар молнии решает вопрос: Рейчел становится роковой красоткой, но теперь группу ждут новые, куда более серьезные проблемы.

Доп. информация: Присутствуют вставки голосовой и текстовой рекламы

Качество: WEB-DLRip
Формат: AVI
Видео кодек: XviD
Аудио кодек: AC3
Видео: Xvid, 720x304, ~1678 Kbps
Аудио#1: AC-3, 2 ch, 384 Kbps
скриншот   скриншот   скриншот   скриншот  

бщее
Полное имя : D:\CD\Высокое напряжение (Ужасы-Триллер) (2018) WEB-DLRip-MVO\Высокое напряжение (Ужасы-Триллер) (2018) WEB-DLRip-MVO.avi
Формат : AVI
Формат/Информация : Audio Video Interleave
Размер файла : 1,32 Гбайт
Продолжительность : 1 ч. 30 м.
Общий поток : 2072 Кбит/сек
Программа кодирования : VirtualDubMod 1.5.10.2 (build 2540/release)
Библиотека кодирования : VirtualDub build 35576/release

Видео
Идентификатор : 0
Формат : MPEG-4 Visual
Профиль формата : Advanced Simple@L5
Настройки формата : BVOP2 / Custom Matrix
Параметр BVOP формата : 2
Параметр QPel формата : Нет
Параметр GMC формата : Без точки перехода
Параметр матрицы формата : Выборочная
Идентификатор кодека : XVID
Идентификатор кодека/Подсказка : XviD
Продолжительность : 1 ч. 30 м.
Битрейт : 1678 Кбит/сек
Ширина : 720 пикселей
Высота : 304 пикселя
Соотношение сторон : 2,35:1
Частота кадров : 23,976 (24000/1001) кадра/сек
Цветовое пространство : YUV
Субдискретизация насыщенности : 4:2:0
Битовая глубина : 8 бит
Тип развёртки : Прогрессивная
Метод сжатия : С потерями
Бит/(Пиксели*Кадры) : 0.320
Размер потока : 1,07 Гбайт (81%)
Библиотека кодирования : XviD 1.2.1 (UTC 2008-12-04)

Аудио
Идентификатор : 1
Формат : AC-3
Формат/Информация : Audio Coding 3
Коммерческое название : Dolby Digital
Идентификатор кодека : 2000
Продолжительность : 1 ч. 30 м.
Вид битрейта : Постоянный
Битрейт : 384 Кбит/сек
Каналы : 2 канала
Channel layout : L R
Частота : 48,0 КГц
Частота кадров : 31,250 кадров/сек (1536 SPF)
Битовая глубина : 16 бит
Метод сжатия : С потерями
Размер потока : 250 Мбайт (19%)
Выравнивание : Разделение по промежуткам
Продолжительность промежутка : 42 мс. (1,00 видеокадр)
Время предзагрузки промежутка : 500 мс.
ServiceKind/String : Complete Main

pb.wtf



Скачать Высокое напряжение через торрент http://pic1.kartinco.top/images/11/dqn9q.jpg Скачать фильм Высокое напряжение через торрент бесплантно в хорошем качестве Описание: Старый музыкант Джимми собирает группу из молодых и талантливых ребят. Но возникает проблема: солистка слишком застенчива, чтобы ... 10 10 2
Торрент: Зарегистрирован [2018-09-28 02:27] · скачан: 74 раз
Статус: T временная
Размер: 1.32 GB
Как cкачать? Как скачать Высокое напряжение через торрент | qTorrent

28-11-2019 20:33  

Отключить всю рекламу на сайте

28-09-2018 05:17 Высокое напряжение Скачать торрент  

"Один удар молнии решает вопрос" с...ка pb.wtf



    Дорогой пользователь! Огромная просьба, поблагодарите релизера, оцените раздачу и оставьте свои комментарий, если Вы скачали Высокое напряжение через торрент бесплатно! Внесите свою лепту в развитие PiratBit!
    Комментировать посты могут только пользователи прошедшие не сложную регистрацию
    Показать сообщения:    

    Высокое напряжение через торрент
    Скачать бесплатно Высокое напряжение
    Высокое напряжение скачать торрент
    Высокое напряжение смотреть онлайн
    Cкачать фильм Высокое напряжение бесплатно
    Высокое напряжение скачать торрент в хорошем качестве
    Высокое напряжение смотреть онлайн бесплатно в хорошем качестве


    Вы не можете начинать темы
    Вы не можете отвечать на сообщения
    Вы не можете редактировать свои сообщения
    Вы не можете удалять свои сообщения
    Вы не можете голосовать в опросах
    Вы не можете прикреплять файлы к сообщениям
    Вы можете скачивать файлы