Ребята, если до конца года каждый наш пользователь пожертвует хотя бы 10 рублей, нам хватит денег оплатить все наши расходы.

iTunes

Хэллоуин

iTunes

venom

iTunes

Вы умрете, или мы вернем вам деньги

iTunes

iTunes

Тайна дома с часами

iTunes

Ничего хорошего в отеле «Эль рояль»

1080p

Хит недели

Лицензия

Агент Джонни Инглиш 3.0

ИГРА 18+

pack

RePack

Battlefield V

RePack

Assassins Creed: Odyssey
pack

Проголосуй

Лучший релизер 2018

RePack

Darksiders 3

iTunes 4K

venom Хит недели

RePack

fifa19

!!Акция!!

Alien_RageХит недели

RePack

NEED FOR SPEED™ PAYBACK

SATRip

9 сезон

Бесстыжие 9 сезон

Все сериалы

все сериалы на PB.wtf

iTunes

Мэнди

RePack

FAR CRY 5
  

Смертельное оружие / Lethal Weapon / Сезон: 3 / Серии: 1-11 из 22 (МакДжи, Стив Бойум) [2018, боевик, триллер, драма, WEB-DLRip] MVO [Jaskier]

Смертельное оружие через торрент

Размер: 5.91 GB | Добавлен: 6 д. назад | Торрент скачан:3 раза
Скачать  

28-09-2018 04:19 Смертельное оружие Скачать торрент  


═╬ Смертельное оружие ╬═
Информация о фильме:

✦ Название: Смертельное оружие
✦ Оригинальное название: Lethal Weapon
✦ Год выхода: 2018
✦ Страна: США / Warner Bros. Television
✦ Жанр: боевик, триллер, драма, криминал
✦ Режиссер: МакДжи, Стив Бойум
✦ Продолжительность: ~ 00:43:00
✦ Перевод: Профессиональный (многоголосый) | Jaskier
✦ Субтитры: отсутствуют

В ролях:

Шонн Уильям Скотт, Чарльз Бэйкер, Дэймон Уайанс, Джордана Брюстер, Данте Браун, Джонатан Фернандес, Чандлер Кинни, Кевин Рам, Киша Шарп, Флориана Лима и др.

Описание:

Сюжет сосредоточится на копе из Техаса, который, потеряв жену и ребёнка, перебирается на службу в Лос-Анджелес. Там ему суждено стать напарником уже немолодого детектива, которому из-за недавнего инфаркта врачи прописали избегать стрессов. Но с новым коллегой, буквально лезущим под пули, сделать это будет попросту невозможно.

rating

Информация о файле:

✦ Качество: WEB-DLRip
✦ Формат: AVI

✦ Видео: ~ 1450 kbps, 720x400, 23.976 fps
✦ Аудио#1: Ru: mp3, 48.0 KHz, 2 ch, 128 kbps
✦ Аудио#2: En: mp3, 48.0 KHz, 2 ch, 128 kbps
скриншот  скриншот  скриншот  

Общее
Полное имя : E:\Lethal Weapon. Season 3 (WEB-DLRip l 400p l Jaskier)\Lethal.Weapon.S03E01.WEB-DLRip.Rus.Eng.Jaskier.avi
Формат : AVI
Формат/Информация : Audio Video Interleave
Размер файла : 550 Мбайт
Продолжительность : 43 м. 54 с.
Общий поток : 1753 Кбит/сек
Программа кодирования : VirtualDubMod 1.5.10.3 | www.virtualdub-fr.org || (build 2550/release)
Библиотека кодирования : VirtualDubMod build 2550/release

Видео
Идентификатор : 0
Формат : MPEG-4 Visual
Профиль формата : Advanced Simple@L5
Настройки формата : BVOP1 / Custom Matrix
Параметр BVOP формата : 1
Параметр QPel формата : Нет
Параметр GMC формата : Без точки перехода
Параметр матрицы формата : Выборочная
Идентификатор кодека : XVID
Идентификатор кодека/Подсказка : XviD
Продолжительность : 43 м. 54 с.
Битрейт : 1483 Кбит/сек
Ширина : 720 пикселей
Высота : 400 пикселей
Соотношение сторон : 16:9
Частота кадров : 23,976 (24000/1001) кадра/сек
Частота кадров в оригинале : 23,976 (23976/1000) кадра/сек
Цветовое пространство : YUV
Субдискретизация насыщенности : 4:2:0
Битовая глубина : 8 бит
Тип развёртки : Прогрессивная
Метод сжатия : С потерями
Бит/(Пиксели*Кадры) : 0.215
Размер потока : 466 Мбайт (85%)
Библиотека кодирования : XviD 73

Аудио #1
Идентификатор : 1
Формат : MPEG Audio
Версия формата : Version 1
Профиль формата : Layer 3
Настройки формата : Joint stereo / MS Stereo
Идентификатор кодека : 55
Идентификатор кодека/Подсказка : MP3
Продолжительность : 43 м. 54 с.
Вид битрейта : Постоянный
Битрейт : 128 Кбит/сек
Каналы : 2 канала
Частота : 48,0 КГц
Метод сжатия : С потерями
Размер потока : 40,2 Мбайт (7%)
Выравнивание : Соединение по промежуткам
Продолжительность промежутка : 42 мс. (1,00 видеокадр)
Время предзагрузки промежутка : 504 мс.

Аудио #2
Идентификатор : 2
Формат : MPEG Audio
Версия формата : Version 1
Профиль формата : Layer 3
Настройки формата : Joint stereo / MS Stereo
Идентификатор кодека : 55
Идентификатор кодека/Подсказка : MP3
Продолжительность : 43 м. 54 с.
Вид битрейта : Постоянный
Битрейт : 128 Кбит/сек
Каналы : 2 канала
Частота : 48,0 КГц
Метод сжатия : С потерями
Размер потока : 40,2 Мбайт (7%)
Выравнивание : Соединение по промежуткам
Продолжительность промежутка : 42 мс. (1,00 видеокадр)
Время предзагрузки промежутка : 504 мс.

Когда раздача ведётся путём добавления новых серий, при каждом добавлении создётся новый торрент. Чтобы начать докачку новой серии, пользователям необходимо сделать следующее:
(1) остановить скачивание,
(2) удалить старый торрент у себя из клиента (старые серии удалять не надо),
(3) скачать новый торрент и запустить его у себя в клиенте вместо старого, при этом указать клиенту путь в старую папку, куда и должно происходить скачивание новых серий.
Ваш клиент при этом должен произвести хеширование (проверку) старой папки (если не производит сам - помогите ему сделать это), и будет докачивать только те серии, которых у вас ещё нет. Старые серии при этом не удаляются, а продолжают раздаваться!
Eсли вы уже удалили старые серии, то предотвратить повторную закачку старых серий можно, отжав галочку в соответсвующих местах при запуске нового торрента. По возможности, желательно не удалять старые серии как можно дольше, чтобы релизёр не столько продолжал раздавать старые серии, а смог сконцентрироваться на новых.



Скачать Смертельное оружие через торрент http://img11.lostpic.net/2018/09/28/aaf05f145c3e7c839efb3aaa98b645eb.png Скачать фильм Смертельное оружие через торрент бесплантно в хорошем качестве Описание:Сюжет сосредоточится на копе из Техаса, который, потеряв жену и ребёнка, перебирается на службу в Лос-Анджелес. Там ему суждено ... 8.8 10 5
Торрент: Зарегистрирован [2019-01-11 15:38] · скачан: 3 раз
Статус: √ проверено
Размер: 5.91 GB
Как cкачать? Как скачать Смертельное оружие через торрент | qTorrent

% Раздел Тема Автор DL S | L
Зарубежные сериалы [ 4.17 GB ] Смертельное оружие / Lethal Weapon / Сезон: 3 / Серии: 1-11 из 22 [2018 WEBRip] [DVO] killermax2013 Скачать
2 | 0
Зарубежные сериалы [ 6.24 GB ] Смертельное оружие / Lethal Weapon / Сезон: 3 / Серии: 1-11 из 22 [2018 WEBRip] MVO [LostFilm] bober100 Скачать
4 | 0
Зарубежные сериалы [ 9.77 GB ] Смертельное оружие / Lethal Weapon / Сезон: 3 / Серии: 1-11 из 22 [2018 WEBRip 720p] DVO [SunshineStudio] bober100 Скачать
1 | 0
Зарубежные сериалы [ 24.7 GB ] Смертельное оружие / Lethal Weapon / Сезон: 3 / Серии: 1-11 из 22 [2018 WEB-DL 1080p] MVO [Jaskier] bober100 Скачать
1 | 0
Зарубежные сериалы [ 9.88 GB ] Смертельное оружие / Lethal Weapon / Сезон: 3 / Серии: 1-11 из 22 [2018 WEB-DL 720p] MVO [Jaskier] bober100 Скачать
1 | 0
Зарубежные сериалы [ 19.8 GB ] Смертельное оружие / Lethal Weapon / Сезон: 3 / Серии: 1-11 из 22 [2018 WEBRip 1080p] [MVO] killermax2013 Скачать
1 | 1


>> Регистрируемся здесь <<






Отзывы и комментарии о схеме читаем и пишем здесь: ---> Отзывы и комментарии о схеме

Новые благодарочки в телеграм довольных пользователей:
скриншот   скриншот   скриншот   скриншот   скриншот
    Дорогой пользователь! Огромная просьба, поблагодарите релизера, оцените раздачу и оставьте свои комментарий, если Вы скачали Смертельное оружие через торрент бесплатно! Внесите свою лепту в развитие PiratBit!
    Комментировать посты могут только пользователи прошедшие не сложную регистрацию
    Показать сообщения:    

    Смертельное оружие через торрент
    Скачать бесплатно Смертельное оружие
    Смертельное оружие скачать торрент
    Смертельное оружие смотреть онлайн
    Cкачать фильм Смертельное оружие бесплатно
    Смертельное оружие скачать торрент в хорошем качестве
    Смертельное оружие смотреть онлайн бесплатно в хорошем качестве


    Вы не можете начинать темы
    Вы не можете отвечать на сообщения
    Вы не можете редактировать свои сообщения
    Вы не можете удалять свои сообщения
    Вы не можете голосовать в опросах
    Вы не можете прикреплять файлы к сообщениям
    Вы можете скачивать файлы