Ребята, если до конца года каждый наш пользователь пожертвует хотя бы 10 рублей, нам хватит денег оплатить все наши расходы.

iTunes

Хэллоуин

iTunes

venom

iTunes

Вы умрете, или мы вернем вам деньги

iTunes

iTunes

Тайна дома с часами

iTunes

Ничего хорошего в отеле «Эль рояль»

1080p

Хит недели

Лицензия

Агент Джонни Инглиш 3.0

ИГРА 18+

pack

RePack

Battlefield V

RePack

Assassins Creed: Odyssey
pack

Проголосуй

Лучший релизер 2018

RePack

Darksiders 3

iTunes 4K

venom Хит недели

RePack

fifa19

!!Акция!!

Alien_RageХит недели

RePack

NEED FOR SPEED™ PAYBACK

SATRip

9 сезон

Бесстыжие 9 сезон

Все сериалы

все сериалы на PB.wtf

iTunes

Мэнди

RePack

FAR CRY 5
  

Смертельное оружие / Lethal Weapon / Сезон: 3 / Серии: 1-11 из 22 (МакДжи, Стив Бойум) [2018, боевик, триллер, драма, WEB-DL 720p] MVO [Jaskier]

Смертельное оружие через торрент

Размер: 9.88 GB | Добавлен: 6 д. назад | Торрент скачан:2 раза
Скачать  

28-09-2018 04:19 Смертельное оружие Скачать торрент  


═╬ Смертельное оружие ╬═
Информация о фильме:

✦ Название: Смертельное оружие
✦ Оригинальное название: Lethal Weapon
✦ Год выхода: 2018
✦ Страна: США / Warner Bros. Television
✦ Жанр: боевик, триллер, драма, криминал
✦ Режиссер: МакДжи, Стив Бойум
✦ Продолжительность: ~ 00:43:00
✦ Перевод: Профессиональный (многоголосый) | Jaskier
✦ Субтитры: английские

В ролях:

Шонн Уильям Скотт, Чарльз Бэйкер, Дэймон Уайанс, Джордана Брюстер, Данте Браун, Джонатан Фернандес, Чандлер Кинни, Кевин Рам, Киша Шарп, Флориана Лима и др.

Описание:

Сюжет сосредоточится на копе из Техаса, который, потеряв жену и ребёнка, перебирается на службу в Лос-Анджелес. Там ему суждено стать напарником уже немолодого детектива, которому из-за недавнего инфаркта врачи прописали избегать стрессов. Но с новым коллегой, буквально лезущим под пули, сделать это будет попросту невозможно.

rating

Информация о файле:

✦ Качество: WEB-DL 720p
✦ Формат: MKV

✦ Видео: ~ 2500 kbps, 1280x720, 23.976 fps
✦ Аудио#1: Ru: AC3, 6 ch, 384 kbps
✦ Аудио#2: En: AC3, 6 ch, 384 kbps
скриншот  скриншот  скриншот  

Общее
Уникальный идентификатор : 214866137301432324868641818370761026495 (0xA1A5B6792ACDBD41931474266917EBBF)
Полное имя : E:\Lethal Weapon. Season 3 (WEB-DL l 720p l Jaskier)\Lethal.Weapon.S03E01.720p.WEB-DL.DD5.1.H.264-Jaskier.mkv
Формат : Matroska
Версия формата : Version 2
Размер файла : 924 Мбайт
Продолжительность : 43 м. 54 с.
Общий поток : 2942 Кбит/сек
Дата кодирования : UTC 2018-09-27 22:11:55
Программа кодирования : mkvmerge v7.8.0 ('River Man') 32bit built on Apr 3 2015 12:11:22
Библиотека кодирования : libebml v1.3.1 + libmatroska v1.4.2

Видео
Идентификатор : 1
Формат : AVC
Формат/Информация : Advanced Video Codec
Профиль формата : High@L3.1
Настройки формата : CABAC / 5 Ref Frames
Параметр CABAC формата : Да
Параметр RefFrames формата : 5 кадров
Идентификатор кодека : V_MPEG4/ISO/AVC
Продолжительность : 43 м. 54 с.
Битрейт : 2116 Кбит/сек
Ширина : 1280 пикселей
Высота : 720 пикселей
Соотношение сторон : 16:9
Режим частоты кадров : Постоянный
Частота кадров : 23,976 (24000/1001) кадра/сек
Цветовое пространство : YUV
Субдискретизация насыщенности : 4:2:0
Битовая глубина : 8 бит
Тип развёртки : Прогрессивная
Бит/(Пиксели*Кадры) : 0.096
Размер потока : 664 Мбайт (72%)
Язык : English
Default : Да
Forced : Нет
Цветовой диапазон : Limited
Основные цвета : BT.709
Характеристики трансфера : BT.709
Коэффициенты матрицы : BT.709

Аудио #1
Идентификатор : 2
Формат : AC-3
Формат/Информация : Audio Coding 3
Идентификатор кодека : A_AC3
Продолжительность : 43 м. 54 с.
Вид битрейта : Постоянный
Битрейт : 384 Кбит/сек
Каналы : 6 каналов
Расположение каналов : Front: L C R, Side: L R, LFE
Частота : 48,0 КГц
Частота кадров : 31,250 кадров/сек (1536 SPF)
Битовая глубина : 16 бит
Метод сжатия : С потерями
Размер потока : 121 Мбайт (13%)
Заголовок : Jaskier
Язык : Russian
ServiceKind/String : Complete Main
Default : Да
Forced : Нет

Аудио #2
Идентификатор : 3
Формат : AC-3
Формат/Информация : Audio Coding 3
Идентификатор кодека : A_AC3
Продолжительность : 43 м. 54 с.
Вид битрейта : Постоянный
Битрейт : 384 Кбит/сек
Каналы : 6 каналов
Расположение каналов : Front: L C R, Side: L R, LFE
Частота : 48,0 КГц
Частота кадров : 31,250 кадров/сек (1536 SPF)
Битовая глубина : 16 бит
Метод сжатия : С потерями
Размер потока : 121 Мбайт (13%)
Язык : English
ServiceKind/String : Complete Main
Default : Нет
Forced : Нет

Текст
Идентификатор : 4
Формат : UTF-8
Идентификатор кодека : S_TEXT/UTF8
Идентификатор кодека/Информация : UTF-8 Plain Text
Язык : English
Default : Нет
Forced : Нет

Когда раздача ведётся путём добавления новых серий, при каждом добавлении создётся новый торрент. Чтобы начать докачку новой серии, пользователям необходимо сделать следующее:
(1) остановить скачивание,
(2) удалить старый торрент у себя из клиента (старые серии удалять не надо),
(3) скачать новый торрент и запустить его у себя в клиенте вместо старого, при этом указать клиенту путь в старую папку, куда и должно происходить скачивание новых серий.
Ваш клиент при этом должен произвести хеширование (проверку) старой папки (если не производит сам - помогите ему сделать это), и будет докачивать только те серии, которых у вас ещё нет. Старые серии при этом не удаляются, а продолжают раздаваться!
Eсли вы уже удалили старые серии, то предотвратить повторную закачку старых серий можно, отжав галочку в соответсвующих местах при запуске нового торрента. По возможности, желательно не удалять старые серии как можно дольше, чтобы релизёр не столько продолжал раздавать старые серии, а смог сконцентрироваться на новых.



Скачать Смертельное оружие через торрент http://img11.lostpic.net/2018/09/28/aaf05f145c3e7c839efb3aaa98b645eb.png Скачать фильм Смертельное оружие через торрент бесплантно в хорошем качестве Описание:Сюжет сосредоточится на копе из Техаса, который, потеряв жену и ребёнка, перебирается на службу в Лос-Анджелес. Там ему суждено ... 10 10 2
Торрент: Зарегистрирован [2019-01-11 15:39] · скачан: 2 раз
Статус: √ проверено
Размер: 9.88 GB
Как cкачать? Как скачать Смертельное оружие через торрент | qTorrent

% Раздел Тема Автор DL S | L
Зарубежные сериалы [ 4.17 GB ] Смертельное оружие / Lethal Weapon / Сезон: 3 / Серии: 1-11 из 22 [2018 WEBRip] [DVO] killermax2013 Скачать
2 | 0
Зарубежные сериалы [ 6.24 GB ] Смертельное оружие / Lethal Weapon / Сезон: 3 / Серии: 1-11 из 22 [2018 WEBRip] MVO [LostFilm] bober100 Скачать
4 | 0
Зарубежные сериалы [ 9.77 GB ] Смертельное оружие / Lethal Weapon / Сезон: 3 / Серии: 1-11 из 22 [2018 WEBRip 720p] DVO [SunshineStudio] bober100 Скачать
1 | 0
Зарубежные сериалы [ 24.7 GB ] Смертельное оружие / Lethal Weapon / Сезон: 3 / Серии: 1-11 из 22 [2018 WEB-DL 1080p] MVO [Jaskier] bober100 Скачать
1 | 0
Зарубежные сериалы [ 5.91 GB ] Смертельное оружие / Lethal Weapon / Сезон: 3 / Серии: 1-11 из 22 [2018 WEB-DLRip] MVO [Jaskier] bober100 Скачать
1 | 0
Зарубежные сериалы [ 19.8 GB ] Смертельное оружие / Lethal Weapon / Сезон: 3 / Серии: 1-11 из 22 [2018 WEBRip 1080p] [MVO] killermax2013 Скачать
1 | 1


>> Регистрируемся здесь <<






Отзывы и комментарии о схеме читаем и пишем здесь: ---> Отзывы и комментарии о схеме

Новые благодарочки в телеграм довольных пользователей:
скриншот   скриншот   скриншот   скриншот   скриншот
    Дорогой пользователь! Огромная просьба, поблагодарите релизера, оцените раздачу и оставьте свои комментарий, если Вы скачали Смертельное оружие через торрент бесплатно! Внесите свою лепту в развитие PiratBit!
    Комментировать посты могут только пользователи прошедшие не сложную регистрацию
    Показать сообщения:    

    Смертельное оружие через торрент
    Скачать бесплатно Смертельное оружие
    Смертельное оружие скачать торрент
    Смертельное оружие смотреть онлайн
    Cкачать фильм Смертельное оружие бесплатно
    Смертельное оружие скачать торрент в хорошем качестве
    Смертельное оружие смотреть онлайн бесплатно в хорошем качестве


    Вы не можете начинать темы
    Вы не можете отвечать на сообщения
    Вы не можете редактировать свои сообщения
    Вы не можете удалять свои сообщения
    Вы не можете голосовать в опросах
    Вы не можете прикреплять файлы к сообщениям
    Вы можете скачивать файлы