Ссылка на приватное зеркало всего за 1$. Внимание количество ограничено!!!

OK

1+1

iTunes

мы

OK

1

WEB-DLRip

Джокер

Пифагор

Ведьмак / The Witcher сериал

iTunes

ПШазам

ОК

Оно 2

iTunes

30
pack

Вам бонус

ВАЖНО

!!Акция!!

Alien_RageХит недели

RePack

Resident Evil 21

ИГРА 18+

pack

RePack

jed

RePack

fifa19

RePack

Assassins Creed: Odyssey

RePack

NEED FOR SPEED™ PAYBACK

4 сезон

9 сезон

Бесстыжие 9 сезон

Все сериалы

все сериалы на PB.wtf

RePack

FAR CRY 5
  

Убита в семнадцать / Murdered at 17 (Кертис Кроуфорд) [2018, Драма, HDTVRip 720p] MVO ["Синема УС"] pb.wtf

Убита в семнадцать через торрент pb.wtf

Размер: 2.94 GB | Добавлен: 1 год 3 мес. назад | Торрент скачан:44 раза
Скачать  

28-09-2018 05:58 Убита в семнадцать Скачать торрент  

Убита в семнадцать / Murdered at 17Год выпуска: 2018
Страна: США
Жанр: Драма
Продолжительность: 01:26:39
Перевод: Любительский (многоголосый) | "Синема УС"
Субтитры: отсутствуют

Режиссер: Кертис Кроуфорд

rating

В ролях:

Сьюзэн Уолтерс, Кристина Проспери, Блейк Берт. Эмили Калле, Блейк-Каннинг, Бенедикт Белизейр, Майк Стечисон, Томас Чованец, Пуджа Уппал, Максин Кампителли

Описание:

Молодой и успешный предприниматель вводит в заблуждение юную школьницу, чтобы подчинить себе ее волю.

Качество: HDTVRip 720p
Формат: MKV

Видео: h.264,4 480 kb/s, 1280x720
Аудио#1: Русский, (AC3, 2 ch, 384 Кбит/с)
скриншот  скриншот  скриншот  

Общее
Уникальный идентификатор : 185240145350273931298011727863389844815 (0x8B5BF44BE89B78C399EF3873969B754F)
Полное имя : E:\торреннты\Murdered.at.17.2O18.P.HDTV.72Op_KOSHARA.mkv
Формат : Matroska
Версия формата : Version 2
Размер файла : 2,94 Гбайт
Продолжительность : 1 ч. 26 м.
Режим общего битрейта : Переменный
Общий поток : 4865 Кбит/сек
Дата кодирования : UTC 2018-09-27 17:10:58
Программа кодирования : mkvmerge v8.3.0 ('Over the Horizon') 64bit
Библиотека кодирования : libebml v1.3.1 + libmatroska v1.4.2

Видео
Идентификатор : 1
Формат : AVC
Формат/Информация : Advanced Video Codec
Профиль формата : High@L4.1
Настройки формата : CABAC / 4 Ref Frames
Параметр CABAC формата : Да
Параметр RefFrames формата : 4 кадра
Идентификатор кодека : V_MPEG4/ISO/AVC
Продолжительность : 1 ч. 26 м.
Вид битрейта : Переменный
Битрейт : 4480 Кбит/сек
Максимальный битрейт : 5000 Кбит/сек
Ширина : 1280 пикселей
Высота : 720 пикселей
Соотношение сторон : 16:9
Режим частоты кадров : Постоянный
Частота кадров : 23,976 (24000/1001) кадра/сек
Стандарт вещания : Component
Цветовое пространство : YUV
Субдискретизация насыщенности : 4:2:0
Битовая глубина : 8 бит
Тип развёртки : Прогрессивная
Бит/(Пиксели*Кадры) : 0.198
Размер потока : 2,65 Гбайт (90%)
Default : Да
Forced : Нет
Цветовой диапазон : Limited
Основные цвета : BT.709
Характеристики трансфера : BT.709
Коэффициенты матрицы : BT.709

Аудио
Идентификатор : 2
Формат : AC-3
Формат/Информация : Audio Coding 3
Идентификатор кодека : A_AC3
Продолжительность : 1 ч. 26 м.
Вид битрейта : Постоянный
Битрейт : 384 Кбит/сек
Каналы : 2 канала
Расположение каналов : Front: L R
Частота : 48,0 КГц
Частота кадров : 31,250 кадров/сек (1536 SPF)
Битовая глубина : 16 бит
Метод сжатия : С потерями
Размер потока : 238 Мбайт (8%)
ServiceKind/String : Complete Main
Default : Да
Forced : Нет

pb.wtf



Скачать Убита в семнадцать через торрент http://img11.lostpic.net/2018/09/28/709f3d2d6258b6f6fa520a9da154cff9.jpg Скачать фильм Убита в семнадцать через торрент бесплантно в хорошем качестве Описание: Молодой и успешный предприниматель вводит в заблуждение юную школьницу, чтобы подчинить себе ее ... 9 10 3
Торрент: Зарегистрирован [2018-09-28 05:58] · скачан: 44 раз
Статус: T временная
Размер: 2.94 GB
Как cкачать? Как скачать Убита в семнадцать через торрент | qTorrent

% Раздел Тема Автор DL S | L
T Фильмы (мультфильмы) cо спонсором показа (Новинки AVI/MKV) [ 1.37 GB ] Убита в семнадцать / Murdered at 17 [2018 HDTVRip] MVO ["Синема УС"] bober100 Скачать
1 | 0

28-11-2019 20:33  

Отключить всю рекламу на сайте

    Дорогой пользователь! Огромная просьба, поблагодарите релизера, оцените раздачу и оставьте свои комментарий, если Вы скачали Убита в семнадцать через торрент бесплатно! Внесите свою лепту в развитие PiratBit!
    Комментировать посты могут только пользователи прошедшие не сложную регистрацию
    Показать сообщения:    

    Убита в семнадцать через торрент
    Скачать бесплатно Убита в семнадцать
    Убита в семнадцать скачать торрент
    Убита в семнадцать смотреть онлайн
    Cкачать фильм Убита в семнадцать бесплатно
    Убита в семнадцать скачать торрент в хорошем качестве
    Убита в семнадцать смотреть онлайн бесплатно в хорошем качестве


    Вы не можете начинать темы
    Вы не можете отвечать на сообщения
    Вы не можете редактировать свои сообщения
    Вы не можете удалять свои сообщения
    Вы не можете голосовать в опросах
    Вы не можете прикреплять файлы к сообщениям
    Вы можете скачивать файлы