новый адрес пиратбит piratbit
Мега распродажа FORZA HORIZON 4 ULTIMATE+ВСЕ DLC+ОНЛАЙН всего за 499р. 349 руб. (супер цена). Внимание количество ограничено!!!

iTunes

1+1

iTunes

мы

iTunes

1

iTunes

Чернобыль

iTunes

Ральф против интернета

Лицензия

ПШазам

Лицензия

Игра престолов

Лицензия

30
pack

ВАЖНО

!!Акция!!

Alien_RageХит недели

RePack

Resident Evil 21

ИГРА 18+

pack

RePack

Metro:Exodus

!!Акция!!

Alien_Rage

RePack

fifa19

RePack

Assassins Creed: Odyssey

RePack

NEED FOR SPEED™ PAYBACK

3 сезон

9 сезон

Бесстыжие 9 сезон

Все сериалы

все сериалы на PB.wtf

RePack

FAR CRY 5
Ребята, катастрофически не хватает 1900р. для оплаты серверов за Октябрь (всвязи с блокировками трафик упал в 3 раза), 1-2р., выручайте.
  

Жизнь сначала (Лев Рудник) [1961, СССР, драма, SATRip от AVP Studio] pb.wtf

Жизнь сначала через торрент pb.wtf

Размер: 1.09 GB | Добавлен: 1 год 1 мес. назад | Торрент скачан:11 раз
Скачать  

28-09-2018 09:53 Жизнь сначала Скачать торрент  

Жизнь сначала
Страна: СССР
Производство: Мосфильм

Жанр: драма
Год выпуска: 1961
Продолжительность: 01:13:14

Перевод: Не требуется
Cубтитры: нет
Оригинальная аудиодорожка: русский

Режиссер: Лев Рудник

В ролях:
Лидия Сухаревская, Иван Дмитриев, Станислав Чекан, Ольга Красина, Эльза Леждей, Леонид Чубаров, Нина Гребешкова, Евгения Мельникова, Константин Барташевич, Кирилл Столяров, Александр Ушаков, Вадим Грачёв...
Об актёрах подробней

Описание:
Телефильм. Фронтовые друзья Антонина Ивановна (Лидия Сухаревская), Федор (Иван Дмитриев) и Алексей (Станислав Чекан) после победы приехали в Москву. Жена ушла от Федора еще в первые годы войны, и его большая квартира стала их общей. Алексей любил Антонину. И поэтому, когда догадался, что она любит Федора, уехал на родину, в Сибирь. А к Федору вернулась жена и лишила надежды на счастье уже немолодую, некрасивую Антонину...

Исходник: DVB
Качество видео: SATRip
Формат видео: AVI

Видео: 704x528 (4:3), 25,000 кадров/сек, XviD ~ 1930 kbps avg, 0.208 bit/pixel
Аудио: 48 kHz, Dolby Digital AC3 2.0, 192 kbps

Раздача от:
Общее
Полное имя : ZHizn.snachala.1961.SATRip_[New-team]_by_AVP_Studio.avi
Формат : AVI
Формат/Информация : Audio Video Interleave
Размер файла : 1,09 Гбайт
Продолжительность : 1 ч. 13 м.
Общий поток : 2132 Кбит/сек
Программа кодирования : VirtualDubMod 1.5.10.3 | www.virtualdub-fr.org || (build 2550/release)
Библиотека кодирования : VirtualDubMod build 2550/release

Видео
Идентификатор : 0
Формат : MPEG-4 Visual
Профиль формата : Advanced Simple@L5
Настройки формата : BVOP1 / Custom Matrix
Параметр BVOP формата : 1
Параметр QPel формата : Нет
Параметр GMC формата : Без точки перехода
Параметр матрицы формата : Выборочная
Идентификатор кодека : XVID
Идентификатор кодека/Подсказка : XviD
Продолжительность : 1 ч. 13 м.
Битрейт : 1930 Кбит/сек
Ширина : 704 пикселя
Высота : 528 пикселей
Соотношение сторон : 4:3
Частота кадров : 25,000 кадров/сек
Цветовое пространство : YUV
Субдискретизация насыщенности : 4:2:0
Битовая глубина : 8 бит
Тип развёртки : Прогрессивная
Метод сжатия : С потерями
Бит/(Пиксели*Кадры) : 0.208
Размер потока : 1011 Мбайт (91%)
Библиотека кодирования : XviD 73

Аудио
Идентификатор : 1
Формат : AC-3
Формат/Информация : Audio Coding 3
Коммерческое название : Dolby Digital
Идентификатор кодека : 2000
Продолжительность : 1 ч. 13 м.
Вид битрейта : Постоянный
Битрейт : 192 Кбит/сек
Каналы : 2 канала
Channel layout : L R
Частота : 48,0 КГц
Частота кадров : 31,250 кадров/сек (1536 SPF)
Битовая глубина : 16 бит
Метод сжатия : С потерями
Размер потока : 101 Мбайт (9%)
Выравнивание : Разделение по промежуткам
Продолжительность промежутка : 40 мс. (1,00 видеокадр)
Время предзагрузки промежутка : 500 мс
pb.wtf



Скачать Жизнь сначала через торрент http://picplus.ru/img/1809/28/2457b0f7.png Скачать фильм Жизнь сначала через торрент бесплантно в хорошем качестве Описание:Телефильм. Фронтовые друзья Антонина Ивановна (Лидия Сухаревская), Федор (Иван Дмитриев) и Алексей (Станислав Чекан) после победы ... 5 10 1
Info! Золотая раздача, скачанное не засчитывается.
Торрент: Зарегистрирован [2018-09-28 09:53] · скачан: 11 раз
Статус: √ проверено
Размер: 1.09 GB
Как cкачать? Как скачать Жизнь сначала через торрент | qTorrent

% Раздел Тема Автор DL S | L
Кино СССР [ 1.09 GB ] Жизнь сначала [1961 СССР SATRip-AVC от AVP Studio] AVP Studio Скачать
1 | 0


>> Регистрируемся здесь <<






Отзывы и комментарии о схеме читаем и пишем здесь: ---> Отзывы и комментарии о схеме

Новые благодарочки в телеграм довольных пользователей:
скриншот   скриншот   скриншот   скриншот   скриншот
    Дорогой пользователь! Огромная просьба, поблагодарите релизера, оцените раздачу и оставьте свои комментарий, если Вы скачали Жизнь сначала через торрент бесплатно! Внесите свою лепту в развитие PiratBit!
    Комментировать посты могут только пользователи прошедшие не сложную регистрацию
    Показать сообщения:    

    Жизнь сначала через торрент
    Скачать бесплатно Жизнь сначала
    Жизнь сначала скачать торрент
    Жизнь сначала смотреть онлайн
    Cкачать фильм Жизнь сначала бесплатно
    Жизнь сначала скачать торрент в хорошем качестве
    Жизнь сначала смотреть онлайн бесплатно в хорошем качестве


    Вы не можете начинать темы
    Вы не можете отвечать на сообщения
    Вы не можете редактировать свои сообщения
    Вы не можете удалять свои сообщения
    Вы не можете голосовать в опросах
    Вы не можете прикреплять файлы к сообщениям
    Вы можете скачивать файлы