1 сезон

1 сезон

iTunes

1

КиноПоиск HD

Кинопоиск HD

iTunes

13

1 сезон

RePack

30

Новинка

ВАЖНО

ИГРА 18+

pack

RePack

MK11
pack

Легкие деньги

RePack

jed

RePack

fifa19

RePack

RDR2

RePack

NEED FOR SPEED™ PAYBACK

4 сезон

9 сезон

Бесстыжие 9 сезон

Все сериалы

все сериалы на PB.wtf

RePack

FAR CRY 5
  
Magnet ссылка

Пузырь / Bubble (Стивен Содерберг) [2005 г., драма, криминал, детектив, HDRip] MVO pb.wtf

Пузырь через торрент pb.wtf

Размер: 1.47 GB | Добавлен: 2 года 6 мес. назад | Торрент скачан:23 раза
Скачать  

28-09-2018 18:58 Пузырь Скачать торрент  

Пузырь / Bubble
Год выпуска: 2005

Страна: США

Жанр: Драма, криминал, детектив

Продолжительность: 01:13:27

Перевод: Профессиональный (многоголосый)

Субтитры: Русские (отдельным файлом)

Режиссер: Стивен Содерберг

rating

В ролях: Дебби Доберейнер, Омар Кауэн, Дастин Джеймс Эшли, Филлис Уоркмэн, Лори Ли, Дэниэл Р. Кристиан, Мисти Доун Уилкинс, Мэдисон Уилкинс, Кайл Смит, Декер Муди.

Описание: Рабочие небольшой фабрики по производству детских игрушек Кайл и Марта поддерживают дружеские отношения. Их жизнь течет размеренно и неторопливо. Но однажды на предприятии появляется новая сотрудница — привлекательная мать-одиночка по имени Роуз. В ее прошлом есть какая-то тайна. Молодые люди начинают проводить свободное время втроем. И вдруг, их сонный городок облетает страшная новость: совершено жестокое убийство! Полиция берет расследование в свои руки…
Качество: HDRip
Формат: AVI
Видео кодек: DivX
Аудио кодек: AC3
Видео: DivX 5, 2348 Кбит/с, 720x304
Аудио#1: Русский, AC3, 2 ch, 192 Кбит/с
Аудио#2: Английский, AC3, 4 ch, 320 Кбит/с
Видео
Идентификатор : 0
Формат : MPEG-4 Visual
Настройки формата : BVOP
Параметр BVOP формата : Да
Параметр QPel формата : Нет
Параметр GMC формата : Без точки перехода
Параметр матрицы формата : Default (H.263)
Идентификатор кодека : DX50
Идентификатор кодека/Подсказка : DivX 5
Продолжительность : 1 ч. 13 м.
Битрейт : 2348 Кбит/сек
Номинальный битрейт : 4854 Кбит/сек
Ширина : 720 пикселей
Высота : 304 пикселя
Соотношение сторон : 2,40:1
Соотношение сторон в оригинале : 2,35:1
Частота кадров : 23,976 (24000/1001) кадра/сек
Цветовое пространство : YUV
Субдискретизация насыщенности : 4:2:0
Битовая глубина : 8 бит
Тип развёртки : Прогрессивная
Метод сжатия : С потерями
Бит/(Пиксели*Кадры) : 0.447
Размер потока : 1,20 Гбайт (92%)
Библиотека кодирования : DivX 6.8.5 (UTC 2009-08-20)


Аудио 1
Идентификатор : 1
Формат : AC-3
Формат/Информация : Audio Coding 3
Идентификатор кодека : 2000
Продолжительность : 1 ч. 13 м.
Вид битрейта : Постоянный
Битрейт : 192 Кбит/сек
Каналы : 2 канала
Расположение каналов : Front: L R
Частота : 48,0 КГц
Частота кадров : 31,250 кадров/сек (1536 SPF)
Битовая глубина : 16 бит
Метод сжатия : С потерями
Размер потока : 101 Мбайт (8%)
Выравнивание : Соединение по промежуткам
Продолжительность промежутка : 42 мс. (1,00 видеокадр)
Время предзагрузки промежутка : 512 мс.
ServiceKind/String : Complete Main


Аудио 2
Формат : AC-3
Формат/Информация : Audio Coding 3
Продолжительность : 1 ч. 13 м.
Вид битрейта : Постоянный
Битрейт : 320 Кбит/сек
Каналы : 4 канала
Расположение каналов : Front: L C R, LFE
Частота : 48,0 КГц
Частота кадров : 31,250 кадров/сек (1536 SPF)
Битовая глубина : 16 бит
Метод сжатия : С потерями
Размер потока : 168 Мбайт (100%)
ServiceKind/String : Complete Main

скриншот   скриншот   скриншот   скриншот   скриншот   скриншот  

pb.wtf



Скачать Пузырь через торрент https://pic1.kartinco.top/images/11/ihmn1.jpg Скачать фильм Пузырь через торрент бесплантно в хорошем качестве Описание: Рабочие небольшой фабрики по производству детских игрушек Кайл и Марта поддерживают дружеские отношения. Их жизнь течет ... 10 10 1
Торрент: Зарегистрирован [2018-09-28 18:58] · скачан: 23 раз
Статус: √ проверено
Размер: 1.47 GB
Как cкачать? Как скачать Пузырь через торрент | UTorrent

28-11-2019 20:33  

Отключить всю рекламу на сайте

29-09-2018 06:57 Пузырь Скачать торрент  

Топик был перенесен из форума Оформление раздач (Кино, Видео и ТВ) в форум Фильмы 2001-2005


-Lexx-pb.wtf



    Дорогой пользователь! Огромная просьба, поблагодарите релизера, оцените раздачу и оставьте свои комментарий, если Вы скачали Пузырь через торрент бесплатно! Внесите свою лепту в развитие PiratBit!
    Комментировать посты могут только пользователи прошедшие не сложную регистрацию
    Показать сообщения:    

    Пузырь через торрент
    Скачать бесплатно Пузырь
    Пузырь скачать торрент
    Пузырь смотреть онлайн
    Cкачать фильм Пузырь бесплатно
    Пузырь скачать торрент в хорошем качестве
    Пузырь смотреть онлайн бесплатно в хорошем качестве


    Вы не можете начинать темы
    Вы не можете отвечать на сообщения
    Вы не можете редактировать свои сообщения
    Вы не можете удалять свои сообщения
    Вы не можете голосовать в опросах
    Вы не можете прикреплять файлы к сообщениям
    Вы можете скачивать файлы