Всегда рабочее зеркало просто перед .vidak.icu напиши любое слово или цифру, Пример http://ky2.vidak.icu

>

7.4

iTunes

7.4

2 сезон

9.4

1 сезон

1

7.4

2 сезон

7.2

iTunes

6.0

MVO

13

6.1

iTunes

8.3

Пиратка

30

ULTIMATE

pack

9.9

Лицензия

ВАЖНО

ИГРА 18+

pack

7.3

RePack

MK11

7.7

RePack

jed

7.8

RePack

fifa19

8.5

RePack

RDR2

RePack

NEED FOR SPEED™ PAYBACK

1 сезон

9 сезон

Бесстыжие 9 сезон

Все сериалы

все сериалы на PB.wtf

RePack

FAR CRY 5

Anonymous, доброй ночи, мы катастрофически не успеваем собрать деньги на оплату серверов, помогите нам пожалуйста 5,10,15р., для нас важна любая помощь . В качестве благодарности мы отключим Вам всю рекламу на сайте (укажите свой ник в строку Ваше имя)!

×
  
Magnet ссылка

Убийца / Sicario (Дени Вильнёв / Denis Villeneuve) [2015, боевик, триллер, драма, BDRip-AVC] AVO [Есарев] - ExKinoRay pb.wtf

Убийца через торрент pb.wtf

Размер: 2.19 GB | Добавлен: 3 года 3 мес. назад | Торрент скачан:258 раз
Смотреть онлайн Убийца | Скачать    Ребята, помогите собрать деньги на оплату серверов!!!

29-09-2018 03:53 Убийца Скачать торрент  

Название: Убийца
Оригинальное название: Sicario
Год выпуска: 2015
Жанр: Боевик, триллер, драма, криминал, детектив
Выпущено: США, Black Label Media, Lionsgate, Thunder Road
Продолжительность: 02:01:20
Перевод: Авторский одноголосый (закадровый)
Режиссер: Дени Вильнёв
В ролях: Эмили Блант, Бенисио Дель Торо, Джош Бролин, Виктор Гарбер, Джон Бернтал, Дэниэл Калуя, Джеффри Донован, Рауль Трухильо, Хулио Седильо, Хэнк Роджерсон, Бернардо Галлегос, Максимилиано Эрнандес, Кевин Уиггинс, Эдгар Арреола, Ким Нив, Хесус Неварес-Кастилло, Дилан Кенин, Джон Трехо, Марти Линдси, Алекс Найт

Описание: На американо-мексиканской границе женщина-полицейский сопровождает двух рейнджеров, которые преследуют наркобарона. Она не подозревает, что по ту сторону границы есть тайное место, где не действуют никакие законы и царят насилие и разврат.

rating

Кодек: х264
Качество: BDRip-AVC
Видео: MPEG-4 AVC, 1024x426, 23,976 fps, ~ 1690 kbps
Аудио #01: 48 kHz, AC3, 5.1, 448 kbps | Авторский одноголосый (закадровый), Дмитрий Есарев (ненормативный) |
Аудио #02: 48 kHz, AC3, 5.1, 448 kbps | Оригинал |
Субтитры: Русские (полные |Воронин (srt, SDH), Матвеев|), английские (полные, SDH)
General
Unique ID : 206298206563479052813432964259997301322 (0x9B3396DF9A29A3238F1E99051DA83A4A)
Complete name : D:\Sicario.2015.AVO.BDRip.AVC.ExKinoRay.mkv
Format : Matroska
Format version : Version 2
File size : 2.19 GiB
Duration : 2 h 1 min
Overall bit rate : 2 583 kb/s
Movie name : Sicario 2015 from ExKinoRay
Encoded date : UTC 2018-09-29 02:34:23
Writing application : mkvmerge v5.6.0 ('Kenya Kane') built on May 27 2012 16:44:04
Writing library : libebml v1.2.3 + libmatroska v1.3.0

Video
ID : 1
Format : AVC
Format/Info : Advanced Video Codec
Format profile : High@L4.1
Format settings, CABAC : Yes
Format settings, ReFrames : 12 frames
Codec ID : V_MPEG4/ISO/AVC
Duration : 2 h 1 min
Bit rate : 1 690 kb/s
Width : 1 024 pixels
Height : 426 pixels
Display aspect ratio : 2.40:1
Frame rate mode : Constant
Frame rate : 23.976 (23976/1000) FPS
Color space : YUV
Chroma subsampling : 4:2:0
Bit depth : 8 bits
Scan type : Progressive
Bits/(Pixel*Frame) : 0.162
Stream size : 1.39 GiB (63%)
Title : Enigma
Writing library : x264 core 152 r2851 ba24899
Encoding settings : cabac=1 / ref=12 / deblock=1:-2:-2 / analyse=0x3:0x113 / me=umh / subme=10 / psy=1 / psy_rd=1.00:0.10 / mixed_ref=1 / me_range=32 / chroma_me=1 / trellis=2 / 8x8dct=1 / cqm=0 / deadzone=21,11 / fast_pskip=0 / chroma_qp_offset=-3 / threads=12 / lookahead_threads=3 / sliced_threads=0 / nr=0 / decimate=0 / interlaced=0 / bluray_compat=0 / constrained_intra=0 / bframes=14 / b_pyramid=2 / b_adapt=2 / b_bias=0 / direct=3 / weightb=1 / open_gop=0 / weightp=2 / keyint=240 / keyint_min=23 / scenecut=40 / intra_refresh=0 / rc=2pass / mbtree=0 / bitrate=1690 / ratetol=1.0 / qcomp=0.60 / qpmin=0 / qpmax=51 / qpstep=4 / cplxblur=20.0 / qblur=0.5 / ip_ratio=1.40 / pb_ratio=1.30 / aq=1:1.00
Language : English
Default : Yes
Forced : No
Color range : Limited
Color primaries : BT.709
Transfer characteristics : BT.709
Matrix coefficients : BT.709

Audio #1
ID : 2
Format : AC-3
Format/Info : Audio Coding 3
Mode extension : CM (complete main)
Format settings, Endianness : Big
Codec ID : A_AC3
Duration : 2 h 1 min
Bit rate mode : Constant
Bit rate : 448 kb/s
Channel(s) : 6 channels
Channel positions : Front: L C R, Side: L R, LFE
Sampling rate : 48.0 kHz
Frame rate : 31.250 FPS (1536 spf)
Compression mode : Lossy
Stream size : 389 MiB (17%)
Title : AVO (Esarev) uncensored
Language : Russian
Default : Yes
Forced : No

Audio #2
ID : 3
Format : AC-3
Format/Info : Audio Coding 3
Mode extension : CM (complete main)
Format settings, Endianness : Big
Codec ID : A_AC3
Duration : 2 h 1 min
Bit rate mode : Constant
Bit rate : 448 kb/s
Channel(s) : 6 channels
Channel positions : Front: L C R, Side: L R, LFE
Sampling rate : 48.0 kHz
Frame rate : 31.250 FPS (1536 spf)
Compression mode : Lossy
Stream size : 389 MiB (17%)
Language : English
Default : No
Forced : No

Text #1
ID : 4
Format : UTF-8
Codec ID : S_TEXT/UTF8
Codec ID/Info : UTF-8 Plain Text
Title : Full (Matveev)
Language : Russian
Default : No
Forced : No

Text #2
ID : 5
Format : UTF-8
Codec ID : S_TEXT/UTF8
Codec ID/Info : UTF-8 Plain Text
Title : Full (Voronine)
Language : Russian
Default : No
Forced : No

Text #3
ID : 6
Format : UTF-8
Codec ID : S_TEXT/UTF8
Codec ID/Info : UTF-8 Plain Text
Title : SDH (Voronine)
Language : Russian
Default : No
Forced : No

Text #4
ID : 7
Format : UTF-8
Codec ID : S_TEXT/UTF8
Codec ID/Info : UTF-8 Plain Text
Title : Full
Language : English
Default : No
Forced : No

Text #5
ID : 8
Format : UTF-8
Codec ID : S_TEXT/UTF8
Codec ID/Info : UTF-8 Plain Text
Title : SDH
Language : English
Default : No
Forced : No

Menu
00:00:00.000 : en:Chapter 01
00:07:14.350 : en:Chapter 02
00:12:55.107 : en:Chapter 03
00:20:04.369 : en:Chapter 04
00:25:24.814 : en:Chapter 05
00:32:11.596 : en:Chapter 06
00:39:24.820 : en:Chapter 07
00:46:15.314 : en:Chapter 08
00:53:24.576 : en:Chapter 09
01:01:40.321 : en:Chapter 10
01:10:49.119 : en:Chapter 11
01:18:02.886 : en:Chapter 12
01:30:59.370 : en:Chapter 13
01:36:57.770 : en:Chapter 14
01:47:42.038 : en:Chapter 15
01:54:12.804 : en:Chapter 16
Релиз от:

Автор релиза: pb.wtf



Скачать Убийца через торрент http://i82.fastpic.ru/big/2016/0830/d0/1a917a668003a602a191c0281ed725d0.jpg Скачать, смотреть онлайн Убийца бесплантно в хорошем качестве Описание: На американо-мексиканской границе женщина-полицейский сопровождает двух рейнджеров, которые преследуют наркобарона. Она не ... 10 10 3
Info! Золотая раздача, скачанное не засчитывается.
Торрент: Зарегистрирован [2018-09-29 03:53] · скачан: 258 раз
Статус: √ проверено
Размер: 2.19 GB
Как cкачать? Как скачать Убийца через торрент | UTorrent

% Раздел Тема Автор DL S | L
T Фильмы с авторской озвучкой [ 1.46 GB ] Убийца 2. Против всех / Sicario 2: Soldado [2018 WEBRip] AVO [BadBajo] - ExKinoRay Enigma2010 Скачать
1 | 0
Фильмы с авторской озвучкой [ 2.29 GB ] Убийца 2. Против всех / Sicario 2: Soldado [2018 HDRip-AVC] AVO [Есарев] - ExKinoRay Enigma2010 Скачать
1 | 0
T Фильмы 2018 [DVDrip, WEB-DLRip, HDrip] (DUB, MVO) [ 2.08 GB ] Убийца 2. Против всех / Sicario 2: Soldado [2018 HDRip-AVC] MVO [HDRezka Studio] - ExKinoRay Enigma2010 Скачать
1 | 0

28-11-2019 20:33  

Отключить всю рекламу на сайте

    Дорогой пользователь! Огромная просьба, поблагодарите релизера, оцените раздачу и оставьте свои комментарий, если Вы скачали Убийца через торрент бесплатно!
    Комментировать посты могут только пользователи прошедшие не сложную регистрацию
    Показать сообщения:    

    Убийца через торрент
    Скачать бесплатно Убийца
    Убийца скачать торрент
    Убийца смотреть онлайн
    Cкачать фильм Убийца бесплатно
    Убийца скачать торрент в хорошем качестве
    Убийца смотреть онлайн бесплатно в хорошем качестве


    Вы не можете начинать темы
    Вы не можете отвечать на сообщения
    Вы не можете редактировать свои сообщения
    Вы не можете удалять свои сообщения
    Вы не можете голосовать в опросах
    Вы не можете прикреплять файлы к сообщениям
    Вы можете скачивать файлы