Ссылка на приватное зеркало всего за 1$. Внимание количество ограничено!!!

OK

1+1

iTunes

мы

OK

1

WEB-DLRip

Джокер

Пифагор

Ведьмак / The Witcher сериал

iTunes

ПШазам

ОК

Оно 2

iTunes

30
pack

Вам бонус

ВАЖНО

!!Акция!!

Alien_RageХит недели

RePack

Resident Evil 21

ИГРА 18+

pack

RePack

jed

RePack

fifa19

RePack

Assassins Creed: Odyssey

RePack

NEED FOR SPEED™ PAYBACK

4 сезон

9 сезон

Бесстыжие 9 сезон

Все сериалы

все сериалы на PB.wtf

RePack

FAR CRY 5
  

Фестиваль страха / Fright Fest (Анте Новакович) [2018, Ужасы, WEB-DL 720p] MVO ["Синема УС"] pb.wtf

Фестиваль страха через торрент pb.wtf

Размер: 3.38 GB | Добавлен: 1 год 3 мес. назад | Торрент скачан:50 раз
Скачать  

29-09-2018 05:15 Фестиваль страха Скачать торрент  

Фестиваль страха / Fright FestГод выпуска: 2018
Страна: США
Жанр: Ужасы
Продолжительность: 01:33:20
Перевод: Любительский (многоголосый) | "Синема УС"
Субтитры: отсутствуют

Режиссер: Анте Новакович

rating

В ролях:

Дилан Уолш, Мэдисон МакКинли, Лил Ромео, Мерси Мэлик, Эшли Бланкеншип, Люк Бэйнс, Панчо Молер, Роберт Скотт Уилсон, Хезер Энн Дэвис, Джонатан Кэмп

Описание:

Безобидное шоу, которое проводится в стенах заброшенной психбольницы, превращается в кровавую и беспощадную бойню.

Качество: WEB-DL 720p
Формат: MKV

Видео: h.264, 4 804 kb/s, 1280x544
Аудио#1: Русский, (AC3, 2 ch, 384 Кбит/с)
скриншот  скриншот  скриншот  

Общее
Уникальный идентификатор : 170373220204262839758350292182007221216 (0x802CB04B73BA01B2826B9F8D1A9B0BE0)
Полное имя : E:\торреннты\Fright.Fest.2018.P.WEB-DL.72Op_KOSHARA.mkv
Формат : Matroska
Версия формата : Version 2
Размер файла : 3,38 Гбайт
Продолжительность : 1 ч. 33 м.
Режим общего битрейта : Переменный
Общий поток : 5190 Кбит/сек
Дата кодирования : UTC 2018-09-28 07:50:49
Программа кодирования : mkvmerge v8.3.0 ('Over the Horizon') 64bit
Библиотека кодирования : libebml v1.3.1 + libmatroska v1.4.2

Видео
Идентификатор : 1
Формат : AVC
Формат/Информация : Advanced Video Codec
Профиль формата : High@L4.1
Настройки формата : CABAC / 4 Ref Frames
Параметр CABAC формата : Да
Параметр RefFrames формата : 4 кадра
Идентификатор кодека : V_MPEG4/ISO/AVC
Продолжительность : 1 ч. 33 м.
Вид битрейта : Переменный
Битрейт : 4804 Кбит/сек
Максимальный битрейт : 5500 Кбит/сек
Ширина : 1280 пикселей
Высота : 544 пикселя
Соотношение сторон : 2,35:1
Режим частоты кадров : Постоянный
Частота кадров : 23,976 (24000/1001) кадра/сек
Стандарт вещания : Component
Цветовое пространство : YUV
Субдискретизация насыщенности : 4:2:0
Битовая глубина : 8 бит
Тип развёртки : Прогрессивная
Бит/(Пиксели*Кадры) : 0.282
Размер потока : 3,07 Гбайт (91%)
Default : Да
Forced : Нет
Цветовой диапазон : Limited
Основные цвета : BT.709
Характеристики трансфера : BT.709
Коэффициенты матрицы : BT.709

Аудио
Идентификатор : 2
Формат : AC-3
Формат/Информация : Audio Coding 3
Идентификатор кодека : A_AC3
Продолжительность : 1 ч. 33 м.
Вид битрейта : Постоянный
Битрейт : 384 Кбит/сек
Каналы : 2 канала
Расположение каналов : Front: L R
Частота : 48,0 КГц
Частота кадров : 31,250 кадров/сек (1536 SPF)
Битовая глубина : 16 бит
Метод сжатия : С потерями
Размер потока : 256 Мбайт (7%)
ServiceKind/String : Complete Main
Default : Да
Forced : Нет

pb.wtf



Скачать Фестиваль страха через торрент http://img11.lostpic.net/2018/09/29/589dace89c8b2290d83d23104794ff0c.jpg Скачать фильм Фестиваль страха через торрент бесплантно в хорошем качестве Описание: Безобидное шоу, которое проводится в стенах заброшенной психбольницы, превращается в кровавую и беспощадную ... 10 10 6
Торрент: Зарегистрирован [2018-09-29 05:15] · скачан: 50 раз
Статус: T временная
Размер: 3.38 GB
Как cкачать? Как скачать Фестиваль страха через торрент | qTorrent

% Раздел Тема Автор DL S | L
T Фильмы (мультфильмы) cо спонсором показа (Новинки AVI/MKV) [ 1.37 GB ] Фестиваль страха / Fright Fest [2018 WEB-DLRip] MVO ["Синема УС"] bober100 Скачать
1 | 0

28-11-2019 20:33  

Отключить всю рекламу на сайте

30-09-2018 14:18 Фестиваль страха Скачать торрент  

Чушь!pb.wtf



    Дорогой пользователь! Огромная просьба, поблагодарите релизера, оцените раздачу и оставьте свои комментарий, если Вы скачали Фестиваль страха через торрент бесплатно! Внесите свою лепту в развитие PiratBit!
    Комментировать посты могут только пользователи прошедшие не сложную регистрацию
    Показать сообщения:    

    Фестиваль страха через торрент
    Скачать бесплатно Фестиваль страха
    Фестиваль страха скачать торрент
    Фестиваль страха смотреть онлайн
    Cкачать фильм Фестиваль страха бесплатно
    Фестиваль страха скачать торрент в хорошем качестве
    Фестиваль страха смотреть онлайн бесплатно в хорошем качестве


    Вы не можете начинать темы
    Вы не можете отвечать на сообщения
    Вы не можете редактировать свои сообщения
    Вы не можете удалять свои сообщения
    Вы не можете голосовать в опросах
    Вы не можете прикреплять файлы к сообщениям
    Вы можете скачивать файлы